Damnations Day / Invisible,The Dead
Жанр: Progressive Power Metal
Носитель: CD
Страна-производитель диска (релиза): U.S.A.
Год издания: 2012
Издатель (лейбл): NightmareRecords
Номер по каталогу: NMR-574
Страна исполнителя (группы): Australia
Аудиокодек: FLAC (*.flac)
Тип рипа: image+.cue
Битрейт аудио: lossless
Продолжительность: 00:37:40
Источник (релизер): kikel
Наличие сканов в содержимом раздачи: да
Треклист:
01. Invisible the Dead
02. The Meaning
03. I Am
04. Reaper
05. A Ghost in Me
06. Lucid Dreaming
07. Reflections
08. Carried Above the Sun
09. A World to Come

Лог создания рипа

Exact Audio Copy V1.0 beta 4 from 7. December 2014
EAC extraction logfile from 7. April 2017, 17:09
Damnations Day / Invisible, the Dead
Used drive : HL-DT-STDVDRAM GU40N Adapter: 0 ID: 1
Read mode : Secure
Utilize accurate stream : Yes
Defeat audio cache : Yes
Make use of C2 pointers : No
Read offset correction : 103
Overread into Lead-In and Lead-Out : No
Fill up missing offset samples with silence : Yes
Delete leading and trailing silent blocks : No
Null samples used in CRC calculations : Yes
Used interface : Installed external ASPI interface
Used output format : User Defined Encoder
Selected bitrate : 1024 kBit/s
Quality : High
Add ID3 tag : No
Command line compressor : C:\Program Files (x86)\AudioConverter\AudioConverter.exe
Additional command line options : FLAC
TOC of the extracted CD
Track | Start | Length | Start sector | End sector
---------------------------------------------------------
1 | 0:00.00 | 4:23.74 | 0 | 19798
2 | 4:23.74 | 3:44.21 | 19799 | 36619
3 | 8:08.20 | 3:21.18 | 36620 | 51712
4 | 11:29.38 | 4:31.08 | 51713 | 72045
5 | 16:00.46 | 3:53.52 | 72046 | 89572
6 | 19:54.23 | 4:21.08 | 89573 | 109155
7 | 24:15.31 | 4:31.25 | 109156 | 129505
8 | 28:46.56 | 5:35.74 | 129506 | 154704
9 | 34:22.55 | 3:17.38 | 154705 | 169517
Range status and errors
Selected range
Filename C:\Users\workutagin\Desktop\Damnations Day - Invisible,The Dead 2012 Flac\Damnations Day - Invisible, the Dead.wav
Peak level 97.0 %
Extraction speed 1.9 X
Range quality 99.9 %
Test CRC 4600E90E
Copy CRC 4600E90E
Copy OK
No errors occurred
AccurateRip summary
Track 1 accurately ripped (confidence 3) [D5FE6F40] (AR v2)
Track 2 accurately ripped (confidence 3) [67C7BF74] (AR v2)
Track 3 accurately ripped (confidence 3) [0EA3681E] (AR v2)
Track 4 accurately ripped (confidence 3) [CD21307B] (AR v2)
Track 5 accurately ripped (confidence 3) [2DF75907] (AR v2)
Track 6 accurately ripped (confidence 3) [ACFA722D] (AR v2)
Track 7 accurately ripped (confidence 3) [595CF66F] (AR v2)
Track 8 accurately ripped (confidence 3) [AB6A646C] (AR v2)
Track 9 accurately ripped (confidence 3) [ED1C2BAE] (AR v2)
All tracks accurately ripped
End of status report
==== Log checksum 9BFE6723552E7CFA9E8103EB42AA6B059C1416BF99D6C2E5E7AACD30ED2356C8 ====

Лог проверки качества

AUDIOCHECKER v2.0 beta (build 457) - by Dester - [email protected]
~~~~~~~~~~~~~~~~~~~~~~~~~~~~~~~~~~
Started at: понедельник, 10. 04. 2017. - 11:05.13
1 file found
1 -===- C:\Users\Дмитрий\Desktop\Damnations Day - Invisible,The Dead 2012 Flac\Damnations Day - Invisible, the Dead.flac
Extracted successfully
Conclusion: this track is CDDA with probability 100%
Tempfile successfully deleted.
Finished at: понедельник, 10. 04. 2017. - 11:06.38 (operation time: 0:01.25)

If you like the topic, please click share to help develop our site.

To download the file disable ad blocking, and reload the page.

disable adblock How to disable ad blocking?

Download by magnet link 307 MB Download Torrent

Login using:

Similar topics



   
Current time is: 18-Feb 21:10 :: All times are UTC + 3