Damnations Day / A World Awakens
Жанр: Progressive Power Metal
Носитель: CD
Год издания: 2017
Издатель (лейбл): Sensory Records
Страна исполнителя (группы): Australia (Geelong, Victoria)
Аудиокодек: FLAC (*.flac)
Тип рипа: image+.cue
Битрейт аудио: lossless
Продолжительность: 00:45:06
Источник (релизер): kikel
Наличие сканов в содержимом раздачи: да
Треклист:
1. The Witness
2. Dissecting The Soul
3. Colours Of Darkness
4. I Pray
5. Into Black
6. To Begin Again
7. The Idol Counterfeit
8. A World Awakens
9. Diagnose

Лог создания рипа

Exact Audio Copy V1.0 beta 4 from 7. December 2014
EAC extraction logfile from 7. April 2017, 18:08
Damnations Day / A World Awakens
Used drive : HL-DT-STDVDRAM GU40N Adapter: 0 ID: 1
Read mode : Secure
Utilize accurate stream : Yes
Defeat audio cache : Yes
Make use of C2 pointers : No
Read offset correction : 103
Overread into Lead-In and Lead-Out : No
Fill up missing offset samples with silence : Yes
Delete leading and trailing silent blocks : No
Null samples used in CRC calculations : Yes
Used interface : Installed external ASPI interface
Used output format : User Defined Encoder
Selected bitrate : 1024 kBit/s
Quality : High
Add ID3 tag : No
Command line compressor : C:\Program Files (x86)\AudioConverter\AudioConverter.exe
Additional command line options : FLAC
TOC of the extracted CD
Track | Start | Length | Start sector | End sector
---------------------------------------------------------
1 | 0:00.00 | 4:45.36 | 0 | 21410
2 | 4:45.36 | 4:46.58 | 21411 | 42918
3 | 9:32.19 | 4:58.30 | 42919 | 65298
4 | 14:30.49 | 5:42.51 | 65299 | 90999
5 | 20:13.25 | 3:05.13 | 91000 | 104887
6 | 23:18.38 | 5:02.13 | 104888 | 127550
7 | 28:20.51 | 5:21.16 | 127551 | 151641
8 | 33:41.67 | 6:14.19 | 151642 | 179710
9 | 39:56.11 | 5:10.63 | 179711 | 203023
Range status and errors
Selected range
Filename C:\Users\workutagin\Desktop\Neuer Ordner\Damnations Day - A World Awakens.wav
Peak level 98.8 %
Extraction speed 1.9 X
Range quality 100.0 %
Test CRC DE2177A9
Copy CRC DE2177A9
Copy OK
No errors occurred
AccurateRip summary
Track 1 not present in database
Track 2 not present in database
Track 3 not present in database
Track 4 not present in database
Track 5 not present in database
Track 6 not present in database
Track 7 not present in database
Track 8 not present in database
Track 9 not present in database
None of the tracks are present in the AccurateRip database
End of status report
==== Log checksum EFA2D34AC453F755B8A9AC85F75A2375028DE16ECCF03AFE52B498B2FD98F0B2 ====

Лог проверки качества

AUDIOCHECKER v2.0 beta (build 457) - by Dester - [email protected]
~~~~~~~~~~~~~~~~~~~~~~~~~~~~~~~~~~
Started at: суббота, 08. 04. 2017. - 16:30.27
1 file found
1 -===- C:\Users\Дмитрий\Desktop\Damnations Day - A World Awakens 2017\Damnations Day - A World Awakens.flac
Extracted successfully
Conclusion: this track is CDDA with probability 100%
Tempfile successfully deleted.
Finished at: суббота, 08. 04. 2017. - 16:32.38 (operation time: 0:02.10)

If you like the topic, please click share to help develop our site.

To download the file disable ad blocking, and reload the page.

disable adblock How to disable ad blocking?

Download by magnet link 337 MB Download Torrent

Login using:

Similar topics



   
Current time is: 18-Feb 21:49 :: All times are UTC + 3