Accept - Spanish 5 CD Collection Жанр: Heavy Metal
Страна-производитель дисков: Spain
Год издания дисков: 1994+ (ifpi code on CD's)
Издатель (лейбл): Victoria | PDI, S. A.
Страна исполнителя (группы): Germany
Аудиокодек: FLAC (*.flac)
Тип рипа: image+.cue
Битрейт аудио: lossless
Наличие сканов в содержимом раздачи: да
Официальный сайт: Accept | Dirkschneider & U.D.O.

1979 - Accept

Номер по каталогу: X-80.0499 / PDI 80.0499
Продолжительность: 36:23
Источник (релизер): ojocaspa [MMT]
Треклист:
01. Lady Lou (3:03)
02. Tired Of Me (3:14)
03. Seawinds (4:29)
04. Take Him In My Heart (3:29)
05. Sounds Of War (4:35)
06. Free Me Now (3:00)
07. Glad To Be Alone (5:12)
08. That's Rock'n Roll (2:53)
09. Helldriver (2:40)
10. Street Fighter (3:28)

Лог создания рипа

EAC extraction logfile from 3. April 2008, 22:02 for CD
accept / accept
Used drive : HL-DT-STDVD-ROM GDR8163B Adapter: 0 ID: 1
Read mode : Secure with NO C2, accurate stream, disable cache
Read offset correction : 102
Overread into Lead-In and Lead-Out : No
Used output format : C:\Archivos de programa\Exact Audio Copy\MAC.EXE (Monkey's Audio Lossless Encoder)
High Lossless Compression
Other options :
Fill up missing offset samples with silence : Yes
Delete leading and trailing silent blocks : No
Native Win32 interface for Win NT & 2000
Range status and errors
Selected range
Filename G:\MeTaLMaDNeSS.TeaM\accept - [1979-(1992)] accept\CDImage.wav
Peak level 99.9 %
Range quality 100.0 %
CRC 2924EC61
Copy OK
No errors occured
End of status report

Содержание индексной карты (.CUE)

REM DATE 1979
REM DISCID 8208860A
REM COMMENT "ExactAudioCopy v0.9b4"
PERFORMER "ACCEPT"
TITLE "ACCEPT"
FILE "CD.flac" WAVE
TRACK 01 AUDIO
TITLE "LADY LOU"
INDEX 00 00:00:00
INDEX 01 00:00:32
TRACK 02 AUDIO
TITLE "TIRED OF ME"
INDEX 01 03:03:22
TRACK 03 AUDIO
TITLE "SEAWINDS"
INDEX 00 06:17:57
INDEX 01 06:18:57
TRACK 04 AUDIO
TITLE "TAKE HIM IN MY HEART"
INDEX 00 10:49:25
INDEX 01 10:51:15
TRACK 05 AUDIO
TITLE "SOUNDS OF WAR"
INDEX 00 14:20:57
INDEX 01 14:23:52
TRACK 06 AUDIO
TITLE "FREE ME NOW"
INDEX 00 18:59:57
INDEX 01 19:02:40
TRACK 07 AUDIO
TITLE "GLAD TO BE ALONE"
INDEX 00 22:02:62
INDEX 01 22:04:62
TRACK 08 AUDIO
TITLE "THAT'S ROCK'N ROLL"
INDEX 00 27:17:40
INDEX 01 27:18:65
TRACK 09 AUDIO
TITLE "HELLDRIVER"
INDEX 00 30:11:20
INDEX 01 30:12:20
TRACK 10 AUDIO
TITLE "STREET FIGHTER"
INDEX 01 32:54:30

Лог проверки качества

-----------------------
DON'T MODIFY THIS FILE
-----------------------
PERFORMER: auCDtect Task Manager, ver. 1.6.0 RC1 build 1.6.0.1
Copyright (c) 2008-2010 y-soft. All rights reserved
http://y-soft.org
ANALYZER: auCDtect: CD records authenticity detector, version 0.8.2
Copyright (c) 2004 Oleg Berngardt. All rights reserved.
Copyright (c) 2004 Alexander Djourik. All rights reserved.
FILE: CD.flac
Size: 252906434 Hash: 4ECBCB907CC5D232A1CB732021BB184D Accuracy: -m0
Conclusion: CDDA 99%
Signature: B099CB5D585CF9CF2DF4E166FD3E482456FCE9A8

Accuraterip Check

[CUETools log; Date: 21.02.2017 18:22:28; Version: 2.1.5]
Pregap length 00:00:32.
[CTDB TOCID: W8ZPO7X9QC2XKFEkaQ7Dla3ED2U-] found.
[ CTDBID ] Status
[f1929d16] (31/40) Has pregap length 00:00:00, No match
[eef5e08f] (07/40) Accurately ripped
[a20b8b9d] (01/40) Has pregap length 00:00:00, No match
[f961b5ae] (01/40) Has pregap length 00:00:00, No match
Track | CTDB Status
1 | ( 7/40) Accurately ripped
2 | ( 7/40) Accurately ripped
3 | ( 7/40) Accurately ripped
4 | ( 7/40) Accurately ripped
5 | ( 7/40) Accurately ripped
6 | ( 7/40) Accurately ripped
7 | ( 7/40) Accurately ripped
8 | ( 7/40) Accurately ripped
9 | ( 7/40) Accurately ripped
10 | ( 7/40) Accurately ripped
[AccurateRip ID: 000de884-006fd8d8-8208860a] found.
Track [ CRC | V2 ] Status
01 [f9b71b74|bdd7660e] (0+0/5) No match
02 [b1674d2b|568b3e12] (0+0/5) No match
03 [674d9db7|3d5f6ce5] (0+0/5) No match
04 [7c8c0fd3|ce69dc6a] (0+0/5) No match
05 [f59cab30|04aca532] (0+0/5) No match
06 [57604f1b|a0c372ba] (0+0/5) No match
07 [cf0c6667|b7b78e9f] (0+0/5) No match
08 [a5b706e6|7a1af189] (0+0/5) No match
09 [f7693cf4|2ba747a5] (0+0/5) No match
10 [d14d02fc|1606af20] (0+0/5) No match
Offsetted by -654:
01 [bd401e46] (2/5) Accurately ripped
02 [1644b841] (2/5) Accurately ripped
03 [cb018a82] (2/5) Accurately ripped
04 [f8b0a8b7] (2/5) Accurately ripped
05 [27a34797] (2/5) Accurately ripped
06 [38f16a63] (2/5) Accurately ripped
07 [7778c290] (2/5) Accurately ripped
08 [726c23cb] (2/5) Accurately ripped
09 [fe3173d7] (2/5) Accurately ripped
10 [ce311c2b] (2/5) Accurately ripped
Track Peak [ CRC32 ] [W/O NULL] [ LOG ]
-- 99,9 [4FBECD52] [2924EC61] W/O NULL
01 99,9 [17B4F9DE] [F1E7B313]
02 99,5 [FFC8917E] [E7B4F688]
03 96,9 [773E4AE9] [31EAB8DD]
04 99,9 [90798930] [689CD6CF]
05 99,9 [AC01F577] [B74FCA13]
06 97,1 [5DCC7EDC] [6E4EA831]
07 95,8 [C3496D12] [2C35DE94]
08 91,1 [8208272B] [59C9A3E9]
09 98,3 [FC0C08F2] [03937AFF]
10 91,9 [9446071E] [4D00AF4A]

Dynamic Range | Waveform | Spectrogram

foobar2000 1.3.14 / Dynamic Range Meter 1.1.1
log date: 2017-02-21 18:23:44
--------------------------------------------------------------------------------
Analyzed: ACCEPT / ACCEPT
--------------------------------------------------------------------------------
DR Peak RMS Duration Track
--------------------------------------------------------------------------------
DR11 -0.01 dB -12.04 dB 3:03 01-LADY LOU
DR10 -0.04 dB -11.91 dB 3:15 02-TIRED OF ME
DR10 -0.27 dB -12.92 dB 4:32 03-SEAWINDS
DR10 -0.01 dB -11.90 dB 3:32 04-TAKE HIM IN MY HEART
DR10 0.00 dB -11.44 dB 4:39 05-SOUNDS OF WAR
DR10 -0.25 dB -11.41 dB 3:02 06-FREE ME NOW
DR11 -0.37 dB -13.68 dB 5:14 07-GLAD TO BE ALONE
DR10 -0.80 dB -12.43 dB 2:53 08-THAT'S ROCK'N ROLL
DR10 -0.15 dB -11.40 dB 2:42 09-HELLDRIVER
DR10 -0.73 dB -12.53 dB 3:29 10-STREET FIGHTER
--------------------------------------------------------------------------------
Number of tracks: 10
Official DR value: DR10
Samplerate: 44100 Hz
Channels: 2
Bits per sample: 16
Bitrate: 927 kbps
Codec: FLAC
================================================================================

1980 - I'm a Rebel

Номер по каталогу: X-80.0500 / PDI 80.0500
Продолжительность: 33:39
Источник (релизер): ojocaspa [MMT]
Треклист:
1. I'm A Rebel (3:57)
2. Save Us (4:33)
3. No Time To Loose (4:35)
4. Thunder & Lightning (4:01)
5. China Lady (3:56)
6. I Wanna Be No Hero (4:00)
7. The King (4:10)
8. Do It (4:11)

Лог создания рипа

EAC extraction logfile from 7. November 2008, 21:06 for CD
accept / i'm a rebel
Used drive : HL-DT-STDVD-ROM GDR8163B Adapter: 0 ID: 1
Read mode : Secure with NO C2, accurate stream, disable cache
Read offset correction : 102
Overread into Lead-In and Lead-Out : No
Used output format : C:\Archivos de programa\Exact Audio Copy\MAC.EXE (Monkey's Audio Lossless Encoder)
High Lossless Compression
Other options :
Fill up missing offset samples with silence : Yes
Delete leading and trailing silent blocks : No
Native Win32 interface for Win NT & 2000
Range status and errors
Selected range
Filename F:\MeTaLMaDNeSS.TeaM\accept - [1980] i'm a rebel\CDImage.wav
Peak level 100.0 %
Range quality 100.0 %
CRC ADDDE12B
Copy OK
No errors occured
End of status report

Содержание индексной карты (.CUE)

REM DATE 1980
REM DISCID 6007E308
REM COMMENT "ExactAudioCopy v0.9b4"
PERFORMER "ACCEPT"
TITLE "I'm a Rebel"
FILE "CD.flac" WAVE
TRACK 01 AUDIO
TITLE "I'm A Rebel"
INDEX 00 00:00:00
INDEX 01 00:00:33
TRACK 02 AUDIO
TITLE "Save Us"
INDEX 00 03:58:30
INDEX 01 03:59:30
TRACK 03 AUDIO
TITLE "No Time To Lose"
INDEX 00 08:33:50
INDEX 01 08:34:50
TRACK 04 AUDIO
TITLE "Thunder & Lightning"
INDEX 00 13:10:70
INDEX 01 13:11:70
TRACK 05 AUDIO
TITLE "China Lady"
INDEX 00 17:13:40
INDEX 01 17:15:40
TRACK 06 AUDIO
TITLE "I Wanna Be No Hero"
INDEX 00 21:12:03
INDEX 01 21:13:43
TRACK 07 AUDIO
TITLE "The King"
INDEX 00 25:15:05
INDEX 01 25:16:05
TRACK 08 AUDIO
TITLE "Do It"
INDEX 00 29:27:03
INDEX 01 29:28:03

Лог проверки качества

-----------------------
DON'T MODIFY THIS FILE
-----------------------
PERFORMER: auCDtect Task Manager, ver. 1.6.0 RC1 build 1.6.0.1
Copyright (c) 2008-2010 y-soft. All rights reserved
http://y-soft.org
ANALYZER: auCDtect: CD records authenticity detector, version 0.8.2
Copyright (c) 2004 Oleg Berngardt. All rights reserved.
Copyright (c) 2004 Alexander Djourik. All rights reserved.
FILE: CD.flac
Size: 222146323 Hash: E8C78911EB1DEB79B004CEAE9F28E45F Accuracy: -m0
Conclusion: CDDA 100%
Signature: 2523ADD2FC583C8F706E88B73AD41512995D1C22

Accuraterip Check

[CUETools log; Date: 21.02.2017 18:00:34; Version: 2.1.5]
Pregap length 00:00:33.
[CTDB TOCID: LqfUVpWliGaaaUzTR5ZpIEqJx3E-] found.
[ CTDBID ] Status
[4b63a3ff] (47/54) Has pregap length 00:00:00, No match
[297dfcd9] (06/54) Accurately ripped
[fbac809e] (01/54) Has pregap length 00:00:00, No match
Track | CTDB Status
1 | ( 6/54) Accurately ripped
2 | ( 6/54) Accurately ripped
3 | ( 6/54) Accurately ripped
4 | ( 6/54) Accurately ripped
5 | ( 6/54) Accurately ripped
6 | ( 6/54) Accurately ripped
7 | ( 6/54) Accurately ripped
8 | ( 6/54) Accurately ripped
[AccurateRip ID: 000a7b5e-0045be67-6007e308] found.
Track [ CRC | V2 ] Status
01 [a0f99113|5525aba5] (2+0/2) Accurately ripped
02 [65401b2c|1f90dfc8] (2+0/2) Accurately ripped
03 [e27a4e59|eeec5305] (2+0/2) Accurately ripped
04 [cc95e605|2e3db3c4] (2+0/2) Accurately ripped
05 [b8238b6a|1178a6f7] (2+0/2) Accurately ripped
06 [b50b385a|01ff9a60] (2+0/2) Accurately ripped
07 [4ad4b816|4e8dcaac] (2+0/2) Accurately ripped
08 [53e3d6a2|7248fd6e] (2+0/2) Accurately ripped
Track Peak [ CRC32 ] [W/O NULL] [ LOG ]
-- 100,0 [7A86D668] [ADDDE12B] W/O NULL
01 99,9 [2241C476] [DF1AC056]
02 99,9 [0D5F6ED6] [83917736]
03 97,7 [6B26850F] [1F4E2208]
04 92,6 [BAEB79B3] [8AE789D7]
05 100,0 [F5056A9B] [6D47F5C8]
06 83,9 [6AC2B8FE] [3D10D00E]
07 91,3 [6183ED1C] [8CD5D122]
08 95,2 [352B72C1] [56F01516]

Dynamic Range | Waveform | Spectrogram

foobar2000 1.3.14 / Dynamic Range Meter 1.1.1
log date: 2017-02-21 18:03:43
--------------------------------------------------------------------------------
Analyzed: ACCEPT / I'm a Rebel
--------------------------------------------------------------------------------
DR Peak RMS Duration Track
--------------------------------------------------------------------------------
DR12 0.00 dB -13.92 dB 3:59 01-I'm A Rebel
DR12 0.00 dB -13.65 dB 4:35 02-Save Us
DR12 -0.20 dB -15.58 dB 4:37 03-No Time To Lose
DR11 -0.67 dB -13.11 dB 4:04 04-Thunder & Lightning
DR11 0.00 dB -12.89 dB 3:58 05-China Lady
DR13 -1.52 dB -17.13 dB 4:02 06-I Wanna Be No Hero
DR13 -0.78 dB -16.42 dB 4:12 07-The King
DR13 -0.42 dB -15.11 dB 4:12 08-Do It
--------------------------------------------------------------------------------
Number of tracks: 8
Official DR value: DR12
Samplerate: 44100 Hz
Channels: 2
Bits per sample: 16
Bitrate: 880 kbps
Codec: FLAC
================================================================================

1981 - Breaker

Номер по каталогу: X-80.0515 / PDI 80.0515
Продолжительность: 44:09
Источник (релизер): ojocaspa [MMT]
Треклист:
01. Starlight (3:53)
02. Breaker (3:38)
03. Run If You Can (4:50)
04. Can't Stand The Night (5:25)
05. Son Of A Bitch (3:54)
06. Burning (5:15)
07. Feelings (4:50)
08. Midnight Highway (4:00)
09. Breaking Up Again (4:41)
10. Down & Out (3:43)

Лог создания рипа

EAC extraction logfile from 7. November 2008, 21:34 for CD
accept / breaker
Used drive : HL-DT-STDVD-ROM GDR8163B Adapter: 0 ID: 1
Read mode : Secure with NO C2, accurate stream, disable cache
Read offset correction : 102
Overread into Lead-In and Lead-Out : No
Used output format : C:\Archivos de programa\Exact Audio Copy\MAC.EXE (Monkey's Audio Lossless Encoder)
High Lossless Compression
Other options :
Fill up missing offset samples with silence : Yes
Delete leading and trailing silent blocks : No
Native Win32 interface for Win NT & 2000
Range status and errors
Selected range
Filename F:\MeTaLMaDNeSS.TeaM\accept - [1981] breaker\CDImage.wav
Peak level 100.0 %
Range quality 100.0 %
CRC A3B8ECD0
Copy OK
No errors occured
End of status report

Содержание индексной карты (.CUE)

REM DATE 1981
REM DISCID 7A0A590A
REM COMMENT "ExactAudioCopy v0.9b4"
PERFORMER "ACCEPT"
TITLE "BREAKER"
FILE "CD.flac" WAVE
TRACK 01 AUDIO
TITLE "Starlight"
INDEX 00 00:00:00
INDEX 01 00:00:32
TRACK 02 AUDIO
TITLE "Breaker"
INDEX 00 03:51:65
INDEX 01 03:53:40
TRACK 03 AUDIO
TITLE "Run If You Can"
INDEX 00 07:29:22
INDEX 01 07:31:07
TRACK 04 AUDIO
TITLE "Can't Stand The Night"
INDEX 00 12:18:70
INDEX 01 12:21:40
TRACK 05 AUDIO
TITLE "Son Of A Bitch"
INDEX 00 17:43:42
INDEX 01 17:46:40
TRACK 06 AUDIO
TITLE "Burning"
INDEX 00 21:39:02
INDEX 01 21:41:02
TRACK 07 AUDIO
TITLE "Feelings"
INDEX 00 26:54:00
INDEX 01 26:55:50
TRACK 08 AUDIO
TITLE "Midnight Highway"
INDEX 00 31:43:70
INDEX 01 31:45:55
TRACK 09 AUDIO
TITLE "Breaking Up Again"
INDEX 00 35:43:62
INDEX 01 35:45:27
TRACK 10 AUDIO
TITLE "Down & Out"
INDEX 00 40:24:37
INDEX 01 40:26:02

Лог проверки качества

-----------------------
DON'T MODIFY THIS FILE
-----------------------
PERFORMER: auCDtect Task Manager, ver. 1.6.0 RC1 build 1.6.0.1
Copyright (c) 2008-2010 y-soft. All rights reserved
http://y-soft.org
ANALYZER: auCDtect: CD records authenticity detector, version 0.8.2
Copyright (c) 2004 Oleg Berngardt. All rights reserved.
Copyright (c) 2004 Alexander Djourik. All rights reserved.
FILE: CD.flac
Size: 297655659 Hash: FE965BFCF9EDF13BC73E9420CB3538FA Accuracy: -m0
Conclusion: CDDA 99%
Signature: CC6C1B65BF3852601E196DBB1B9E0CA8C3ED002A

Accuraterip Check

[CUETools log; Date: 21.02.2017 19:38:46; Version: 2.1.5]
Pregap length 00:00:32.
[CTDB TOCID: 3LV7mYLxLDyZ2spB7vqRfX1fNtc-] found.
[ CTDBID ] Status
[77f9f7ee] (1/1) Differs in 3 samples @07:51:56
Track | CTDB Status
1 | (1/1) Accurately ripped
2 | (1/1) Accurately ripped
3 | (1/1) Differs in 3 samples @00:21:06
4 | (1/1) Accurately ripped
5 | (1/1) Accurately ripped
6 | (1/1) Accurately ripped
7 | (1/1) Accurately ripped
8 | (1/1) Accurately ripped
9 | (1/1) Accurately ripped
10 | (1/1) Accurately ripped
[AccurateRip ID: 0010a2b8-00861e3d-7a0a590a] found.
Track [ CRC | V2 ] Status
01 [ad804d25|46df330b] (0+0/0) No match
02 [339f0ad7|2b6f22e7] (0+0/0) No match
03 [2117f347|e22d627d] (0+1/1) Accurately ripped
04 [d62a7089|293d4d7a] (0+0/0) No match
05 [c7606bc7|795a51ce] (0+0/0) No match
06 [14d9e8ff|5afb2757] (0+0/0) No match
07 [a4f50ede|ff41216a] (0+0/0) No match
08 [49dbc43a|22d445c6] (0+0/0) No match
09 [6183ddff|09e5f08a] (0+0/0) No match
10 [1048b707|95f707d7] (0+0/0) No match
Track Peak [ CRC32 ] [W/O NULL] [ LOG ]
-- 100,0 [59530F22] [A3B8ECD0] W/O NULL
01 100,0 [FB767BD9] [18601941]
02 100,0 [DCA1C455] [BC673F25]
03 100,0 [C16DD28F] [EEA6FB0A]
04 98,1 [7034A884] [2C5639AC]
05 100,0 [FB0692FD] [E9E7902E]
06 99,9 [751DC043] [D04B973D]
07 93,6 [887FFC47] [BF5F03F6]
08 99,0 [BED9A04F] [330F78A5]
09 93,1 [C9AD655A] [6E073102]
10 99,0 [87608DD5] [82F0A256]

Dynamic Range | Waveform | Spectrogram

foobar2000 1.3.14 / Dynamic Range Meter 1.1.1
log date: 2017-02-21 19:40:14
--------------------------------------------------------------------------------
Analyzed: ACCEPT / BREAKER
--------------------------------------------------------------------------------
DR Peak RMS Duration Track
--------------------------------------------------------------------------------
DR10 0.00 dB -11.32 dB 3:53 01-Starlight
DR10 0.00 dB -10.38 dB 3:38 02-Breaker
DR11 0.00 dB -12.06 dB 4:50 03-Run If You Can
DR11 -0.16 dB -13.65 dB 5:25 04-Can't Stand The Night
DR11 0.00 dB -13.37 dB 3:54 05-Son Of A Bitch
DR11 -0.01 dB -13.12 dB 5:15 06-Burning
DR11 -0.57 dB -13.42 dB 4:50 07-Feelings
DR11 -0.08 dB -12.61 dB 4:00 08-Midnight Highway
DR11 -0.62 dB -14.83 dB 4:41 09-Breaking Up Again
DR10 -0.08 dB -12.25 dB 3:43 10-Down & Out
--------------------------------------------------------------------------------
Number of tracks: 10
Official DR value: DR11
Samplerate: 44100 Hz
Channels: 2
Bits per sample: 16
Bitrate: 899 kbps
Codec: FLAC
================================================================================

1982 - restless & wild

Номер по каталогу: X-80.0006 VCD-55 / PDI 80.0006
Продолжительность: 44:02
Источник (релизер): ojocaspa [MMT]
Треклист:
01. Fast As a Shark (3:46)
02. Restless and Wild (4:13)
03. Ahead of the Pack (3:25)
04. Shake Your Heads (4:19)
05. Neon Nights (6:04)
06. Get Ready (3:43)
07. Demon's Night (4:29)
08. Flash Rocking Man (4:29)
09. Don't go Stealing My Soul Away (3:16)
10. Princess of the Dawn (6:17)

Лог создания рипа

EAC extraction logfile from 7. November 2008, 21:53 for CD
accept / restless and wild
Used drive : HL-DT-STDVD-ROM GDR8163B Adapter: 0 ID: 1
Read mode : Secure with NO C2, accurate stream, disable cache
Read offset correction : 102
Overread into Lead-In and Lead-Out : No
Used output format : C:\Archivos de programa\Exact Audio Copy\MAC.EXE (Monkey's Audio Lossless Encoder)
High Lossless Compression
Other options :
Fill up missing offset samples with silence : Yes
Delete leading and trailing silent blocks : No
Native Win32 interface for Win NT & 2000
Range status and errors
Selected range
Filename F:\MeTaLMaDNeSS.TeaM\accept - [1982] restless and wild\CDImage.wav
Peak level 100.0 %
Range quality 100.0 %
CRC 61B7727A
Copy OK
No errors occured
End of status report

Содержание индексной карты (.CUE)

REM DATE 1982
REM DISCID 740A520A
REM COMMENT "ExactAudioCopy v0.9b4"
PERFORMER "Accept"
TITLE "restless & wild"
FILE "CD.flac" WAVE
TRACK 01 AUDIO
TITLE "Fast As a Shark"
INDEX 00 00:00:00
INDEX 01 00:00:33
TRACK 02 AUDIO
TITLE "Restless and Wild"
INDEX 01 03:46:05
TRACK 03 AUDIO
TITLE "Ahead of the Pack"
INDEX 00 07:58:33
INDEX 01 07:59:33
TRACK 04 AUDIO
TITLE "Shake Your Heads"
INDEX 00 11:23:33
INDEX 01 11:24:63
TRACK 05 AUDIO
TITLE "Neon Nights"
INDEX 01 15:43:43
TRACK 06 AUDIO
TITLE "Get Ready"
INDEX 00 21:46:00
INDEX 01 21:48:00
TRACK 07 AUDIO
TITLE "Demon's Night"
INDEX 01 25:30:40
TRACK 08 AUDIO
TITLE "Flash Rocking Man"
INDEX 01 29:59:23
TRACK 09 AUDIO
TITLE "Don't go Stealing My Soul Away"
INDEX 00 34:27:23
INDEX 01 34:28:23
TRACK 10 AUDIO
TITLE "Princess of the Dawn"
INDEX 00 37:43:15
INDEX 01 37:44:60

Лог проверки качества

-----------------------
DON'T MODIFY THIS FILE
-----------------------
PERFORMER: auCDtect Task Manager, ver. 1.6.0 RC1 build 1.6.0.1
Copyright (c) 2008-2010 y-soft. All rights reserved
http://y-soft.org
ANALYZER: auCDtect: CD records authenticity detector, version 0.8.2
Copyright (c) 2004 Oleg Berngardt. All rights reserved.
Copyright (c) 2004 Alexander Djourik. All rights reserved.
FILE: CD.flac
Size: 290072973 Hash: 57C0104FF42CFC780AFCFA8B8FCC88EF Accuracy: -m0
Conclusion: MPEG 95%
Signature: 400D03CA18F6970A27C35776573B4E118004F776

Accuraterip Check

[CUETools log; Date: 21.02.2017 20:08:37; Version: 2.1.5]
Pregap length 00:00:33.
[CTDB TOCID: oxleb_R3EGbs6Q9LfkcyZbAlMi4-] found.
[ CTDBID ] Status
[1abab267] (3/3) Accurately ripped
Track | CTDB Status
1 | (3/3) Accurately ripped
2 | (3/3) Accurately ripped
3 | (3/3) Accurately ripped
4 | (3/3) Accurately ripped
5 | (3/3) Accurately ripped
6 | (3/3) Accurately ripped
7 | (3/3) Accurately ripped
8 | (3/3) Accurately ripped
9 | (3/3) Accurately ripped
10 | (3/3) Accurately ripped
[AccurateRip ID: 000ff620-0080e4cc-740a520a] found.
Track [ CRC | V2 ] Status
01 [68d045ce|c7197ef2] (0+2/4) Accurately ripped
02 [9dd69c10|6584dbd7] (0+2/4) Accurately ripped
03 [3dc43275|c7483a71] (0+2/4) Accurately ripped
04 [e89dfff0|e1ed8b4a] (0+2/4) Accurately ripped
05 [bd4c7a9a|a885a303] (0+0/2) No match
06 [f77c5e7f|5e882844] (0+2/4) Accurately ripped
07 [b4aaf405|11d451c2] (0+2/4) Accurately ripped
08 [d9982195|451c1601] (0+2/4) Accurately ripped
09 [b1a19546|efccb534] (0+2/4) Accurately ripped
10 [20d52e80|9db28d6d] (0+2/4) Accurately ripped
Offsetted by -664:
01 [aa15be17] (0/4) No match (V2 was not tested)
02 [2a4fb35a] (0/4) No match (V2 was not tested)
03 [451be538] (0/4) No match (V2 was not tested)
04 [ac8a2eab] (0/4) No match (V2 was not tested)
05 [d281a77c] (0/2) No match (V2 was not tested)
06 [12c2eac1] (0/4) No match (V2 was not tested)
07 [3b9756b0] (0/4) No match (V2 was not tested)
08 [fb06f996] (0/4) No match (V2 was not tested)
09 [b2db3599] (0/4) No match (V2 was not tested)
10 [f4ab1fa3] (0/4) No match (V2 was not tested)
Track Peak [ CRC32 ] [W/O NULL] [ LOG ]
-- 100,0 [FB2C4150] [61B7727A] W/O NULL
01 100,0 [3CCEA66E] [9B8A00B5]
02 98,4 [7FFDBFA4] [8B03CD36]
03 99,9 [02AA4921] [4CD92647]
04 99,8 [A94FDEE6] [E06A5F69]
05 96,7 [6E8DEDA3] [6FC2864A]
06 97,3 [7F74F71C] [477F9A5D]
07 91,2 [3FEE81D9] [D1747602]
08 99,8 [9ECF6403] [09118FF1]
09 90,4 [B9E094DE] [40425472]
10 98,6 [2C48EED4] [9A69B59B]

Dynamic Range | Waveform | Spectrogram

foobar2000 1.3.14 / Dynamic Range Meter 1.1.1
log date: 2017-02-21 19:54:29
--------------------------------------------------------------------------------
Analyzed: Accept / restless & wild
--------------------------------------------------------------------------------
DR Peak RMS Duration Track
--------------------------------------------------------------------------------
DR11 0.00 dB -12.63 dB 3:46 01-Fast As a Shark
DR11 -0.13 dB -12.16 dB 4:13 02-Restless and Wild
DR11 -0.01 dB -13.51 dB 3:25 03-Ahead of the Pack
DR12 -0.01 dB -14.27 dB 4:19 04-Shake Your Heads
DR12 -0.29 dB -15.43 dB 6:04 05-Neon Nights
DR11 -0.23 dB -14.06 dB 3:43 06-Get Ready
DR12 -0.79 dB -14.22 dB 4:29 07-Demon's Night
DR12 -0.01 dB -13.03 dB 4:29 08-Flash Rocking Man
DR12 -0.88 dB -14.25 dB 3:16 09-Don't go Stealing My Soul Away
DR10 -0.12 dB -13.67 dB 6:17 10-Princess of the Dawn
--------------------------------------------------------------------------------
Number of tracks: 10
Official DR value: DR11
Samplerate: 44100 Hz
Channels: 2
Bits per sample: 16
Bitrate: 878 kbps
Codec: FLAC
================================================================================

1987 - Hungry Years

Номер по каталогу: X-80.1154 VCD-209 / PDI 80.1154
Продолжительность: 38:31
Источник (релизер): Alder [avxhome]
Треклист:
1. Fast As A Shark (3:55)
2. Burning (5:13)
3. Son Of A Bitch (3:15)
4. Princess Of The Dawn (6:27)
5. I'm A Rebel (3:46)
6. Breaker (3:35)
7. Restless And Wild (4:19)
8. The King (4:12)
9. Midnight Highway (3:49)

Лог создания рипа

Exact Audio Copy V1.1 from 23. June 2015
EAC extraction logfile from 22. May 2016, 16:45
Accept / Hungry Years [PDI 80.1154]
Used drive : HL-DT-STBD-RE BH10LS38 Adapter: 1 ID: 1
Read mode : Secure
Utilize accurate stream : Yes
Defeat audio cache : Yes
Make use of C2 pointers : No
Read offset correction : 667
Overread into Lead-In and Lead-Out : No
Fill up missing offset samples with silence : Yes
Delete leading and trailing silent blocks : No
Null samples used in CRC calculations : Yes
Used interface : Installed external ASPI interface
Used output format : User Defined Encoder
Selected bitrate : 128 kBit/s
Quality : High
Add ID3 tag : No
Command line compressor : C:\Program Files (x86)\Exact Audio Copy\wavpack-4.60.1\wavpack.exe
Additional command line options : -hm -w "Year=%year%" -w "Genre=%genre%" %source% %dest%
TOC of the extracted CD
Track | Start | Length | Start sector | End sector
---------------------------------------------------------
1 | 0:00.33 | 3:55.20 | 33 | 17677
2 | 3:55.53 | 5:13.30 | 17678 | 41182
3 | 9:09.08 | 3:14.42 | 41183 | 55774
4 | 12:23.50 | 6:26.63 | 55775 | 84787
5 | 18:50.38 | 3:45.50 | 84788 | 101712
6 | 22:36.13 | 3:34.47 | 101713 | 117809
7 | 26:10.60 | 4:19.20 | 117810 | 137254
8 | 30:30.05 | 4:12.03 | 137255 | 156157
9 | 34:42.08 | 3:49.10 | 156158 | 173342
Range status and errors
Selected range
Filename G:\Rips by Alder\Accept - Hungry Years [PDI 80.1154].wav
Peak level 100.0 %
Extraction speed 1.9 X
Range quality 100.0 %
Test CRC F49756C9
Copy CRC F49756C9
Copy OK
No errors occurred
AccurateRip summary
Track 1 cannot be verified as accurate (confidence 2) [5C22F45A], AccurateRip returned [9A7B03F5] (AR v2)
Track 2 cannot be verified as accurate (confidence 2) [35298209], AccurateRip returned [64CE738C] (AR v2)
Track 3 cannot be verified as accurate (confidence 2) [4EC38FB8], AccurateRip returned [42F8AA8C] (AR v2)
Track 4 cannot be verified as accurate (confidence 2) [6D680709], AccurateRip returned [94900AD1] (AR v2)
Track 5 cannot be verified as accurate (confidence 2) [FE5A375C], AccurateRip returned [12F214C1] (AR v2)
Track 6 cannot be verified as accurate (confidence 2) [D0B97D5A], AccurateRip returned [44693C10] (AR v2)
Track 7 cannot be verified as accurate (confidence 2) [3B14222D], AccurateRip returned [783182DE] (AR v2)
Track 8 cannot be verified as accurate (confidence 2) [B3C8ED52], AccurateRip returned [09039931] (AR v2)
Track 9 cannot be verified as accurate (confidence 2) [48560018], AccurateRip returned [B2C7DA30] (AR v2)
No tracks could be verified as accurate
You may have a different pressing from the one(s) in the database
End of status report
---- CUETools DB Plugin V2.1.6
[CTDB TOCID: yYQZRuV_DCEGCG9neZtMRtewLRI-] found
Submit result: yYQZRuV_DCEGCG9neZtMRtewLRI- has been confirmed
Track | CTDB Status
1 | (1/1) Accurately ripped
2 | (1/1) Accurately ripped
3 | (1/1) Accurately ripped
4 | (1/1) Accurately ripped
5 | (1/1) Accurately ripped
6 | (1/1) Accurately ripped
7 | (1/1) Accurately ripped
8 | (1/1) Accurately ripped
9 | (1/1) Accurately ripped
==== Log checksum F74B4EF6871E8D756CA4219FB0CB330FB5744ABD0D7AF672315482DD8D2806A8 ====

Содержание индексной карты (.CUE)

REM DATE 1987
REM DISCID 6C090709
REM COMMENT "ExactAudioCopy v1.1"
CATALOG 8427322811541
PERFORMER "ACCEPT"
TITLE "HUNGRY YEARS"
FILE "CD.flac" WAVE
TRACK 01 AUDIO
TITLE "Fast As A Shark"
INDEX 00 00:00:00
INDEX 01 00:00:33
TRACK 02 AUDIO
TITLE "Burning"
INDEX 00 03:53:45
INDEX 01 03:55:53
TRACK 03 AUDIO
TITLE "Son Of A Bitch"
INDEX 00 09:07:65
INDEX 01 09:09:08
TRACK 04 AUDIO
TITLE "Princess Of The Dawn"
INDEX 00 12:22:48
INDEX 01 12:23:50
TRACK 05 AUDIO
TITLE "I'm A Rebel"
INDEX 00 18:49:20
INDEX 01 18:50:38
TRACK 06 AUDIO
TITLE "Breaker"
INDEX 00 22:35:10
INDEX 01 22:36:13
TRACK 07 AUDIO
TITLE "Restless And Wild"
INDEX 00 26:09:65
INDEX 01 26:10:60
TRACK 08 AUDIO
TITLE "The King"
INDEX 00 30:28:70
INDEX 01 30:30:05
TRACK 09 AUDIO
TITLE "Midnight Highway"
INDEX 00 34:41:08
INDEX 01 34:42:08

Лог проверки качества

-----------------------
DON'T MODIFY THIS FILE
-----------------------
PERFORMER: auCDtect Task Manager, ver. 1.6.0 RC1 build 1.6.0.1
Copyright (c) 2008-2010 y-soft. All rights reserved
http://y-soft.org
ANALYZER: auCDtect: CD records authenticity detector, version 0.8.2
Copyright (c) 2004 Oleg Berngardt. All rights reserved.
Copyright (c) 2004 Alexander Djourik. All rights reserved.
FILE: CD.flac
Size: 271977476 Hash: 66CE101537D031E737F2D6C189D93136 Accuracy: -m0
Conclusion: CDDA 100%
Signature: BCF56F04B64A699182E9438A87797BF04AC759A7

Accuraterip Check

[CUETools log; Date: 08.04.2017 8:02:31; Version: 2.1.5]
Pregap length 00:00:33.
[CTDB TOCID: yYQZRuV_DCEGCG9neZtMRtewLRI-] found.
[ CTDBID ] Status
[84cae779] (3/3) Accurately ripped
Track | CTDB Status
1 | (3/3) Accurately ripped
2 | (3/3) Accurately ripped
3 | (3/3) Accurately ripped
4 | (3/3) Accurately ripped
5 | (3/3) Accurately ripped
6 | (3/3) Accurately ripped
7 | (3/3) Accurately ripped
8 | (3/3) Accurately ripped
9 | (3/3) Accurately ripped
[AccurateRip ID: 000d83e8-0062d7fa-6c090709] found.
Track [ CRC | V2 ] Status
01 [d6fe071a|5c22f45a] (0+0/2) No match
02 [dc217263|35298209] (0+0/2) No match
03 [bbf24d8c|4ec38fb8] (0+0/2) No match
04 [136fb4c1|6d680709] (0+0/2) No match
05 [0c8d1e83|fe5a375c] (0+0/2) No match
06 [de35095b|d0b97d5a] (0+0/2) No match
07 [8596d863|3b14222d] (0+0/2) No match
08 [2187c04c|b3c8ed52] (0+0/2) No match
09 [57dfd516|48560018] (0+0/2) No match
Offsetted by 664:
01 [9a7b03f5] (2/2) Accurately ripped
02 [64ce738c] (2/2) Accurately ripped
03 [42f8aa8c] (2/2) Accurately ripped
04 [94900ad1] (2/2) Accurately ripped
05 [12f214c1] (2/2) Accurately ripped
06 [44693c10] (2/2) Accurately ripped
07 [783182de] (2/2) Accurately ripped
08 [09039931] (2/2) Accurately ripped
09 [b2c7da30] (2/2) Accurately ripped
Track Peak [ CRC32 ] [W/O NULL] [ LOG ]
-- 100,0 [F49756C9] [1CD46197] CRC32
01 100,0 [CB5A75CB] [22C18CDC]
02 97,8 [5CAD57FF] [DD3E2403]
03 100,0 [678F8DD1] [9B3CB295]
04 99,9 [9922C35E] [ED385F5D]
05 100,0 [69FFCC38] [7BA93E2A]
06 99,9 [0FF8A0C2] [5FF3482B]
07 96,8 [9FF7097D] [3CB98B27]
08 98,1 [F3B76BC2] [F7CD4A1A]
09 99,8 [8E4F18C1] [0ABBEB87]

Dynamic Range | Waveform | Spectrogram

foobar2000 1.3.15 / Dynamic Range Meter 1.1.1
log date: 2017-04-08 08:05:14
--------------------------------------------------------------------------------
Analyzed: ACCEPT / HUNGRY YEARS
--------------------------------------------------------------------------------
DR Peak RMS Duration Track
--------------------------------------------------------------------------------
DR12 0.00 dB -12.95 dB 3:55 01-Fast As A Shark
DR11 -0.19 dB -13.30 dB 5:13 02-Burning
DR12 0.00 dB -12.98 dB 3:15 03-Son Of A Bitch
DR12 0.00 dB -13.46 dB 6:27 04-Princess Of The Dawn
DR12 0.00 dB -13.94 dB 3:46 05-I'm A Rebel
DR13 0.00 dB -14.46 dB 3:35 06-Breaker
DR12 -0.28 dB -13.61 dB 4:19 07-Restless And Wild
DR14 -0.16 dB -16.31 dB 4:12 08-The King
DR12 -0.01 dB -13.03 dB 3:49 09-Midnight Highway
--------------------------------------------------------------------------------
Number of tracks: 9
Official DR value: DR12
Samplerate: 44100 Hz
Channels: 2
Bits per sample: 16
Bitrate: 934 kbps
Codec: FLAC
================================================================================

To download the file disable ad blocking, and reload the page.

disable adblock How to disable ad blocking?

Download by magnet link 1.29 GB Download Torrent

Login using:

Загрузка...

Similar topics

(Heavy Metal) Aspid - Demo - 1986, MP3, 128 kbps
 23 MB   0 | 0   06-May-18 19:15   1


   
Current time is: 16-Dec 06:17 :: All times are UTC + 3