-Sigma - Дискография (2CD)- Жанр: Power Metal
Носитель: CD
Год издания: 2000-2003
Издатель (лейбл): Atrheia Records/Hot Rockin'
Страна-производитель диска: Italy/Japan
Страна исполнителя: Italy (Milan, Lombardy)
Аудиокодек: FLAC (*.flac)
Тип рипа: image+.cue
Битрейт аудио: lossless
Продолжительность: 01:49:39
Источник (релизер): Собственные CD
Наличие сканов: Да (Complete 600 DPI)
Доп. информация: Encyclopaedia Metallum
-

2000 - [CD] Sigma (Original Recording) (Atrheia Records ATR CD 0004) [00:53:01]

01. Four Directions
02. End of Time
03. Guardians
04. King of the Nightmares
05. Minded Walls
06. Legacy
07. Follow the Sign
08. Fading Memories
09. Mighty Sword
10. Until Tomorrow
11. Land of Freedom
12. Maniac (Michael Sembello Cover)
Val Shieldon - Vocals
Frank Rider - Guitars
Max Adams - Guitars
Pasko - Bass
Andrew Dal Zio - Drums
A.J. - Keyboards

Лог создания рипа

Exact Audio Copy V1.3 from 2. September 2016
EAC extraction logfile from 6. April 2017, 17:12
Sigma / Sigma
Used drive : ATAPI iHAS122 W Adapter: 2 ID: 0
Read mode : Secure
Utilize accurate stream : Yes
Defeat audio cache : Yes
Make use of C2 pointers : No
Read offset correction : 48
Overread into Lead-In and Lead-Out : No
Fill up missing offset samples with silence : Yes
Delete leading and trailing silent blocks : No
Null samples used in CRC calculations : Yes
Used interface : Installed external ASPI interface
Used output format : User Defined Encoder
Selected bitrate : 1024 kBit/s
Quality : High
Add ID3 tag : No
Command line compressor : C:\Program Files\FLAC\flac.exe
Additional command line options : -V -8 -T "Date=%year%" -T "Genre=%genre%" -T"COMMENT=Ripped by Ilijan - ilko" -8 -V %source%
TOC of the extracted CD
Track | Start | Length | Start sector | End sector
---------------------------------------------------------
1 | 0:01.00 | 4:30.67 | 75 | 20391
2 | 4:31.67 | 4:12.22 | 20392 | 39313
3 | 8:44.14 | 3:30.09 | 39314 | 55072
4 | 12:14.23 | 3:59.55 | 55073 | 73052
5 | 16:14.03 | 4:17.44 | 73053 | 92371
6 | 20:31.47 | 4:44.14 | 92372 | 113685
7 | 25:15.61 | 4:00.06 | 113686 | 131691
8 | 29:15.67 | 4:54.51 | 131692 | 153792
9 | 34:10.43 | 4:30.25 | 153793 | 174067
10 | 38:40.68 | 4:10.71 | 174068 | 192888
11 | 42:51.64 | 5:43.00 | 192889 | 218613
12 | 48:34.64 | 4:26.48 | 218614 | 238611
Range status and errors
Selected range
Filename D:\ilko\Sigma - Sigma.wav
Peak level 99.1 %
Extraction speed 3.8 X
Range quality 100.0 %
Test CRC 81F04B76
Copy CRC 81F04B76
Copy OK
No errors occurred
AccurateRip summary
Track 1 accurately ripped (confidence 5) [83749D4A] (AR v2)
Track 2 accurately ripped (confidence 5) [B503E872] (AR v2)
Track 3 accurately ripped (confidence 5) [739A88AB] (AR v2)
Track 4 accurately ripped (confidence 5) [E43FBE93] (AR v2)
Track 5 accurately ripped (confidence 5) [17912CA3] (AR v2)
Track 6 accurately ripped (confidence 5) [A3263733] (AR v2)
Track 7 accurately ripped (confidence 5) [F960520D] (AR v2)
Track 8 accurately ripped (confidence 5) [A371B4BD] (AR v2)
Track 9 accurately ripped (confidence 5) [BFF2F61B] (AR v2)
Track 10 accurately ripped (confidence 5) [1BF4BEB9] (AR v2)
Track 11 accurately ripped (confidence 5) [5438ABF1] (AR v2)
Track 12 accurately ripped (confidence 4) [7A4F2098] (AR v2)
All tracks accurately ripped
End of status report
---- CUETools DB Plugin V2.1.6
[CTDB TOCID: wf_5F0FRbZVbJoDl0ByBlCUibow-] found
Submit result: wf_5F0FRbZVbJoDl0ByBlCUibow- has been confirmed
Track | CTDB Status
1 | (3/3) Accurately ripped
2 | (3/3) Accurately ripped
3 | (3/3) Accurately ripped
4 | (3/3) Accurately ripped
5 | (3/3) Accurately ripped
6 | (3/3) Accurately ripped
7 | (3/3) Accurately ripped
8 | (3/3) Accurately ripped
9 | (3/3) Accurately ripped
10 | (3/3) Accurately ripped
11 | (3/3) Accurately ripped
12 | (3/3) Accurately ripped
==== Log checksum 7B0EADE3A445F79C7F654B5EB54BC7F3ED1065A173D0CBBA2EFF81DDDB3577F5 ====
-

2003 - [CD] Win Or Lose (Japanese Edition) (Hot Rockin' HRHM-2015) [00:56:38]

01. The Lake
02. Tears
03. I Live if You...
04. Pride and Forgiveness
05. Win or Lose
06. Lady of the Tempest
07. Aria of Vendetta
08. The Bread and the Iron
09. S.O.S. (ABBA cover)
10. New Brave World
11. The Blind Man
12. Eagle's Den
13. Betrothed
14. Win or Lose (Sung In Japanese) (Bonus Track for Japan)
Anthony Pecere - Vocals
Pasko - Bass
Andrew Dal Zio - Drums
Frank Rider - Guitars
Max Adams - Guitars

Bonus Video: Making of "Win or Lose"

Bonus Video - Making of "Win or Lose"
Размер: 56.5 МБ
Тип: MPEG Video
Продолжительность: 00:05:32
----- Видео -----
Ширина кадра: 352
Высота кадра: 288
Скорость потока: 1090 кбит в секунду
Частoта кадров: 25 кадров в секунду
----- Аудио -----
Битрейт: 224 кбит в сек.
Каналы: 2 (стерео)
Частота дискретизации: 44.1 кГц

Скриншоты

Лог создания рипа

Exact Audio Copy V1.3 from 2. September 2016
EAC extraction logfile from 6. April 2017, 16:37
Sigma / Win Or Lose (Japan)
Used drive : ATAPI iHAS122 W Adapter: 2 ID: 0
Read mode : Secure
Utilize accurate stream : Yes
Defeat audio cache : Yes
Make use of C2 pointers : No
Read offset correction : 48
Overread into Lead-In and Lead-Out : No
Fill up missing offset samples with silence : Yes
Delete leading and trailing silent blocks : No
Null samples used in CRC calculations : Yes
Used interface : Installed external ASPI interface
Used output format : User Defined Encoder
Selected bitrate : 1024 kBit/s
Quality : High
Add ID3 tag : No
Command line compressor : C:\Program Files\FLAC\flac.exe
Additional command line options : -V -8 -T "Date=%year%" -T "Genre=%genre%" -T"COMMENT=Ripped by Ilijan - ilko" -8 -V %source%
TOC of the extracted CD
Track | Start | Length | Start sector | End sector
---------------------------------------------------------
1 | 0:00.00 | 1:43.42 | 0 | 7766
2 | 1:43.42 | 4:13.08 | 7767 | 26749
3 | 5:56.50 | 5:03.27 | 26750 | 49501
4 | 11:00.02 | 4:12.70 | 49502 | 68471
5 | 15:12.72 | 4:02.33 | 68472 | 86654
6 | 19:15.30 | 4:49.07 | 86655 | 108336
7 | 24:04.37 | 5:42.43 | 108337 | 134029
8 | 29:47.05 | 4:42.22 | 134030 | 155201
9 | 34:29.27 | 3:22.28 | 155202 | 170379
10 | 37:51.55 | 4:22.45 | 170380 | 190074
11 | 42:14.25 | 5:21.72 | 190075 | 214221
12 | 47:36.22 | 4:00.20 | 214222 | 232241
13 | 51:36.42 | 0:57.46 | 232242 | 236562
14 | 52:34.13 | 4:04.03 | 236563 | 254865
15 | 59:10.16 | 6:19.17 | 266266 | 294707
Range status and errors
Selected range
Filename D:\ilko\Sigma - Win Or Lose (Japan).wav
Peak level 100.0 %
Extraction speed 4.1 X
Range quality 100.0 %
Test CRC 163C8FB5
Copy CRC 163C8FB5
Copy OK
No errors occurred
AccurateRip summary
Track 1 not present in database
Track 2 not present in database
Track 3 not present in database
Track 4 not present in database
Track 5 not present in database
Track 6 not present in database
Track 7 not present in database
Track 8 not present in database
Track 9 not present in database
Track 10 not present in database
Track 11 not present in database
Track 12 not present in database
Track 13 not present in database
Track 14 not present in database
None of the tracks are present in the AccurateRip database
End of status report
---- CUETools DB Plugin V2.1.6
[CTDB TOCID: szzNXKBPRACvF_lPfEKJMI3pzko-] found
Submit result: szzNXKBPRACvF_lPfEKJMI3pzko- has been confirmed
Track | CTDB Status
1 | (2/2) Accurately ripped
2 | (2/2) Accurately ripped
3 | (2/2) Accurately ripped
4 | (2/2) Accurately ripped
5 | (2/2) Accurately ripped
6 | (2/2) Accurately ripped
7 | (2/2) Accurately ripped
8 | (2/2) Accurately ripped
9 | (2/2) Accurately ripped
10 | (2/2) Accurately ripped
11 | (2/2) Accurately ripped
12 | (2/2) Accurately ripped
13 | (2/2) Accurately ripped
14 | (2/2) Accurately ripped
==== Log checksum 5A65A62DBC818B29A3FA117A8398604C4C55033453E8AB6D37DB34A52B144A18 ====

To download the file disable ad blocking, and reload the page.

disable adblock How to disable ad blocking?

Download by magnet link 993 MB Download Torrent

Login using:

Загрузка...

Similar topics



   
Current time is: 16-Dec 13:01 :: All times are UTC + 3