-Ivory Tower - Дискография (Full Length) (4CD)- Жанр: Power/Progressive Metal
Носитель: CD
Год издания: 1998-2011
Издатель (лейбл): Limb Music Products/Pure Steel Records/Dust On The Tracks
Страна-производитель диска: Germany
Страна исполнителя: Germany (Kiel, Schleswig-Holstein)
Аудиокодек: FLAC (*.flac)
Тип рипа: image+.cue
Битрейт аудио: lossless
Продолжительность: 03:55:08
Источник (релизер): Собственные CD
Наличие сканов: Да (Complete 600 DPI)
Доп. информация: Encyclopaedia Metallum
-

1998 - [CD] Ivory Tower (Original Recording) (Limb Music Products LMP 9810-006 CD) [00:58:38]

01. One Life in Asia
02. A Distant Light
03. Alive
04. Falling Leaves
05. Spring
06. She
07. Music
08. Blinded
Andre Fischer - Vocals
Stephan Laschetzki - Bass
Thorsten Thrunke - Drums
Stephan Machon - Keyboards
Sven Böge - Guitars

Лог создания рипа

Exact Audio Copy V1.3 from 2. September 2016
EAC extraction logfile from 6. April 2017, 17:02
Ivory Tower / Ivory Tower
Used drive : MATSHITADVD-RAM UJ8G6 Adapter: 1 ID: 0
Read mode : Secure
Utilize accurate stream : Yes
Defeat audio cache : Yes
Make use of C2 pointers : No
Read offset correction : 103
Overread into Lead-In and Lead-Out : No
Fill up missing offset samples with silence : Yes
Delete leading and trailing silent blocks : No
Null samples used in CRC calculations : Yes
Used interface : Native Win32 interface for Win NT & 2000
Used output format : User Defined Encoder
Selected bitrate : 1024 kBit/s
Quality : High
Add ID3 tag : No
Command line compressor : C:\Program Files (x86)\Exact Audio Copy\FLAC\FLAC.EXE
Additional command line options : -V -8 -T "Date=%year%" -T"Genre=%genre%" -T"COMMENT=Ripped by Ilijan - ilko" -8 -V %source%
TOC of the extracted CD
Track | Start | Length | Start sector | End sector
---------------------------------------------------------
1 | 0:00.00 | 7:28.32 | 0 | 33631
2 | 7:28.32 | 8:04.58 | 33632 | 69989
3 | 15:33.15 | 5:53.51 | 69990 | 96515
4 | 21:26.66 | 5:29.31 | 96516 | 121221
5 | 26:56.22 | 4:28.01 | 121222 | 141322
6 | 31:24.23 | 6:50.02 | 141323 | 172074
7 | 38:14.25 | 6:06.16 | 172075 | 199540
8 | 44:20.41 | 14:18.19 | 199541 | 263909
Range status and errors
Selected range
Filename D:\ilko\Ivory Tower - Ivory Tower.wav
Peak level 99.9 %
Extraction speed 4.1 X
Range quality 100.0 %
Test CRC 48ED000A
Copy CRC 48ED000A
Copy OK
No errors occurred
AccurateRip summary
Track 1 accurately ripped (confidence 3) [2F441CAB] (AR v2)
Track 2 accurately ripped (confidence 3) [A2818844] (AR v2)
Track 3 accurately ripped (confidence 2) [CAD96C20] (AR v2)
Track 4 accurately ripped (confidence 3) [F898C7FD] (AR v2)
Track 5 accurately ripped (confidence 2) [71C24284] (AR v2)
Track 6 accurately ripped (confidence 3) [0A8D5E23] (AR v2)
Track 7 accurately ripped (confidence 3) [8D0FF498] (AR v2)
Track 8 accurately ripped (confidence 3) [5FC2EFB2] (AR v2)
All tracks accurately ripped
End of status report
---- CUETools DB Plugin V2.1.6
[CTDB TOCID: P1bcU.NihZ3LxyyCXkIUrXT51Hg-] found
Submit result: P1bcU.NihZ3LxyyCXkIUrXT51Hg- has been confirmed
Track | CTDB Status
1 | (12/12) Accurately ripped
2 | (12/12) Accurately ripped
3 | ( 2/12) Accurately ripped, or (10/12) differs in 17 samples @01:53:31
4 | (12/12) Accurately ripped
5 | ( 2/12) Accurately ripped, or (10/12) differs in 53 samples @00:47:69-00:47:70,00:58:45
6 | (12/12) Accurately ripped
7 | (12/12) Accurately ripped
8 | (12/12) Accurately ripped
If you are sure that your rip contains errors, you can use CUETools to repair it.
==== Log checksum 5ACF971408F56C1656A3B656AAB5812895FF8AD116DC990252323583F534AF82 ====
-

2000 - [CD] Beyond The Stars (Original Recording) (Limb Music Products LMP 0004-018 CD) [01:03:08]

01. Silence
02. Secret in Me
03. Foreboding
04. Game of Life
05. Peeping Tom
06. Beyond the Stars
07. When Thoughts Are Running Wild
08. Flight into Self
09. Treehouse Theme
10. Treehouse
Andre Fischer - Vocals
Stephan Laschetzki - Bass
Thorsten Thrunke - Drums
Stephan Machon - Keyboards
Sven Böge - Guitars

Лог создания рипа

Exact Audio Copy V1.3 from 2. September 2016
EAC extraction logfile from 6. April 2017, 17:53
Ivory Tower / Beyond the Stars
Used drive : MATSHITADVD-RAM UJ8G6 Adapter: 1 ID: 0
Read mode : Secure
Utilize accurate stream : Yes
Defeat audio cache : Yes
Make use of C2 pointers : No
Read offset correction : 103
Overread into Lead-In and Lead-Out : No
Fill up missing offset samples with silence : Yes
Delete leading and trailing silent blocks : No
Null samples used in CRC calculations : Yes
Used interface : Native Win32 interface for Win NT & 2000
Used output format : User Defined Encoder
Selected bitrate : 1024 kBit/s
Quality : High
Add ID3 tag : No
Command line compressor : C:\Program Files (x86)\Exact Audio Copy\FLAC\FLAC.EXE
Additional command line options : -V -8 -T "Date=%year%" -T"Genre=%genre%" -T"COMMENT=Ripped by Ilijan - ilko" -8 -V %source%
TOC of the extracted CD
Track | Start | Length | Start sector | End sector
---------------------------------------------------------
1 | 0:00.00 | 6:52.51 | 0 | 30950
2 | 6:52.51 | 6:07.72 | 30951 | 58547
3 | 13:00.48 | 11:53.21 | 58548 | 112043
4 | 24:53.69 | 3:53.31 | 112044 | 129549
5 | 28:47.25 | 5:03.04 | 129550 | 152278
6 | 33:50.29 | 7:26.60 | 152279 | 185788
7 | 41:17.14 | 5:54.45 | 185789 | 212383
8 | 47:11.59 | 6:06.17 | 212384 | 239850
9 | 53:18.01 | 1:21.38 | 239851 | 245963
10 | 54:39.39 | 8:29.33 | 245964 | 284171
Range status and errors
Selected range
Filename D:\ilko\Ivory Tower - Beyond the Stars.wav
Peak level 100.0 %
Extraction speed 2.6 X
Range quality 100.0 %
Test CRC C16733CF
Copy CRC C16733CF
Copy OK
No errors occurred
AccurateRip summary
Track 1 accurately ripped (confidence 11) [EE94D6F3] (AR v2)
Track 2 accurately ripped (confidence 11) [CA64350B] (AR v2)
Track 3 accurately ripped (confidence 11) [1C6CE9A9] (AR v2)
Track 4 accurately ripped (confidence 11) [2D1EFF0A] (AR v2)
Track 5 accurately ripped (confidence 11) [8BB7C24B] (AR v2)
Track 6 accurately ripped (confidence 11) [88A76B7E] (AR v2)
Track 7 accurately ripped (confidence 11) [F495B3C6] (AR v2)
Track 8 accurately ripped (confidence 11) [AACF996A] (AR v2)
Track 9 accurately ripped (confidence 11) [1E14F449] (AR v2)
Track 10 accurately ripped (confidence 11) [A4861F3D] (AR v2)
All tracks accurately ripped
End of status report
---- CUETools DB Plugin V2.1.6
[CTDB TOCID: plnC3gP55wKs5Mf2LxADPdO.TkQ-] found
Submit result: plnC3gP55wKs5Mf2LxADPdO.TkQ- has been confirmed
Track | CTDB Status
1 | (14/14) Accurately ripped
2 | (14/14) Accurately ripped
3 | (14/14) Accurately ripped
4 | (14/14) Accurately ripped
5 | (14/14) Accurately ripped
6 | (14/14) Accurately ripped
7 | (14/14) Accurately ripped
8 | (14/14) Accurately ripped
9 | (14/14) Accurately ripped
10 | (14/14) Accurately ripped
==== Log checksum FF9AF39931894422B86D89D196672A3CCE1C91DF8D4203DA6925C54C0DB8D136 ====
-

2008 - [CD] Subjective Enemy (Original Recording) (Pure Steel Records PSRCD 014) [01:06:09]

01. Listen!
02. Warning
03. Access Denied
04. The Calling
05. Answers
06. Words
07. Rise
08. Subjective Enemy
09. Breakthrough
10. My World
11. Welcome To
12. Nails
13. Construction Site
14. Aware
15. Keys
16. The Fall
17. Awake
Andre Fischer - Vocals
Björn Bombach - Bass
Florian Tabbert - Drums
Heiner Risthaus - Keyboards
Sven Böge - Guitars

Лог создания рипа

Exact Audio Copy V1.3 from 2. September 2016
EAC extraction logfile from 6. April 2017, 17:47
Ivory Tower / Subjective Enemy
Used drive : ATAPI iHAS122 W Adapter: 2 ID: 0
Read mode : Secure
Utilize accurate stream : Yes
Defeat audio cache : Yes
Make use of C2 pointers : No
Read offset correction : 48
Overread into Lead-In and Lead-Out : No
Fill up missing offset samples with silence : Yes
Delete leading and trailing silent blocks : No
Null samples used in CRC calculations : Yes
Used interface : Installed external ASPI interface
Used output format : User Defined Encoder
Selected bitrate : 1024 kBit/s
Quality : High
Add ID3 tag : No
Command line compressor : C:\Program Files\FLAC\flac.exe
Additional command line options : -V -8 -T "Date=%year%" -T "Genre=%genre%" -T"COMMENT=Ripped by Ilijan - ilko" -8 -V %source%
TOC of the extracted CD
Track | Start | Length | Start sector | End sector
---------------------------------------------------------
1 | 0:00.00 | 0:55.22 | 0 | 4146
2 | 0:55.22 | 5:21.63 | 4147 | 28284
3 | 6:17.10 | 6:52.11 | 28285 | 59195
4 | 13:09.21 | 6:12.55 | 59196 | 87150
5 | 19:22.01 | 0:38.00 | 87151 | 90000
6 | 20:00.01 | 4:25.00 | 90001 | 109875
7 | 24:25.01 | 0:28.03 | 109876 | 111978
8 | 24:53.04 | 5:10.57 | 111979 | 135285
9 | 30:03.61 | 0:12.54 | 135286 | 136239
10 | 30:16.40 | 6:50.49 | 136240 | 167038
11 | 37:07.14 | 5:43.19 | 167039 | 192782
12 | 42:50.33 | 1:48.13 | 192783 | 200895
13 | 44:38.46 | 4:02.31 | 200896 | 219076
14 | 48:41.02 | 0:45.00 | 219077 | 222451
15 | 49:26.02 | 4:50.54 | 222452 | 244255
16 | 54:16.56 | 0:46.61 | 244256 | 247766
17 | 55:03.42 | 11:05.57 | 247767 | 297698
Range status and errors
Selected range
Filename D:\ilko\Ivory Tower - Subjective Enemy.wav
Peak level 100.0 %
Extraction speed 4.3 X
Range quality 100.0 %
Test CRC DAB54247
Copy CRC DAB54247
Copy OK
No errors occurred
AccurateRip summary
Track 1 accurately ripped (confidence 2) [04AF9F96] (AR v2)
Track 2 accurately ripped (confidence 2) [D7D4D0CD] (AR v2)
Track 3 accurately ripped (confidence 2) [345CE304] (AR v2)
Track 4 accurately ripped (confidence 2) [D62548CF] (AR v2)
Track 5 accurately ripped (confidence 2) [13A2CF03] (AR v2)
Track 6 accurately ripped (confidence 2) [C4BD20F5] (AR v2)
Track 7 accurately ripped (confidence 2) [FE930AB2] (AR v2)
Track 8 accurately ripped (confidence 2) [EF0DEC4F] (AR v2)
Track 9 accurately ripped (confidence 2) [C2A1D4C7] (AR v2)
Track 10 accurately ripped (confidence 2) [A37E71BB] (AR v2)
Track 11 accurately ripped (confidence 2) [9AF76623] (AR v2)
Track 12 accurately ripped (confidence 2) [40747CB2] (AR v2)
Track 13 accurately ripped (confidence 2) [F28F930D] (AR v2)
Track 14 accurately ripped (confidence 2) [F92DADCF] (AR v2)
Track 15 accurately ripped (confidence 2) [3CBDB22F] (AR v2)
Track 16 accurately ripped (confidence 2) [88FF32A8] (AR v2)
Track 17 accurately ripped (confidence 2) [89F39A4E] (AR v2)
All tracks accurately ripped
End of status report
---- CUETools DB Plugin V2.1.6
[CTDB TOCID: jVp1VBG_vnh1D8utbMlvY7_nI.A-] found
Submit result: jVp1VBG_vnh1D8utbMlvY7_nI.A- has been confirmed
Track | CTDB Status
1 | (2/2) Accurately ripped
2 | (2/2) Accurately ripped
3 | (2/2) Accurately ripped
4 | (2/2) Accurately ripped
5 | (2/2) Accurately ripped
6 | (2/2) Accurately ripped
7 | (2/2) Accurately ripped
8 | (2/2) Accurately ripped
9 | (2/2) Accurately ripped
10 | (2/2) Accurately ripped
11 | (2/2) Accurately ripped
12 | (2/2) Accurately ripped
13 | (2/2) Accurately ripped
14 | (2/2) Accurately ripped
15 | (2/2) Accurately ripped
16 | (2/2) Accurately ripped
17 | (2/2) Accurately ripped
==== Log checksum 996000C8D0CAC965A6B39BB7AD1FCD595FDCBA1847B96B57FAD9B9C071671E5B ====
-

2011 - [CD] IV (Original Recording) (Dust On The Tracks DOTT 201121 CD) [00:47:13]

01. Rape of Time
02. Expelled from Heaven
03. Catatonic Sleep
04. Hands to the Sky
05. Loss
06. What If
07. Wailing Wall
08. Child of Burden
09. We're Lost
10. Moments of Delight
Andre Fischer - Vocals
Björn Bombach - Bass
Florian Tabbert - Drums
Sven Böge - Guitars

Лог создания рипа

Exact Audio Copy V1.3 from 2. September 2016
EAC extraction logfile from 6. April 2017, 18:18
Ivory Tower / IV
Used drive : ATAPI iHAS122 W Adapter: 2 ID: 0
Read mode : Secure
Utilize accurate stream : Yes
Defeat audio cache : Yes
Make use of C2 pointers : No
Read offset correction : 48
Overread into Lead-In and Lead-Out : No
Fill up missing offset samples with silence : Yes
Delete leading and trailing silent blocks : No
Null samples used in CRC calculations : Yes
Used interface : Installed external ASPI interface
Used output format : User Defined Encoder
Selected bitrate : 1024 kBit/s
Quality : High
Add ID3 tag : No
Command line compressor : C:\Program Files\FLAC\flac.exe
Additional command line options : -V -8 -T "Date=%year%" -T "Genre=%genre%" -T"COMMENT=Ripped by Ilijan - ilko" -8 -V %source%
TOC of the extracted CD
Track | Start | Length | Start sector | End sector
---------------------------------------------------------
1 | 0:00.00 | 3:54.52 | 0 | 17601
2 | 3:54.52 | 4:19.67 | 17602 | 37093
3 | 8:14.44 | 5:20.03 | 37094 | 61096
4 | 13:34.47 | 4:40.70 | 61097 | 82166
5 | 18:15.42 | 6:00.12 | 82167 | 109178
6 | 24:15.54 | 4:39.46 | 109179 | 130149
7 | 28:55.25 | 6:36.33 | 130150 | 159882
8 | 35:31.58 | 1:55.39 | 159883 | 168546
9 | 37:27.22 | 5:28.63 | 168547 | 193209
10 | 42:56.10 | 4:17.45 | 193210 | 212529
Range status and errors
Selected range
Filename D:\ilko\Ivory Tower - IV.wav
Peak level 99.8 %
Extraction speed 3.8 X
Range quality 100.0 %
Test CRC 4E28919F
Copy CRC 4E28919F
Copy OK
No errors occurred
AccurateRip summary
Track 1 accurately ripped (confidence 4) [1DA15188] (AR v2)
Track 2 accurately ripped (confidence 4) [95E9B2CF] (AR v2)
Track 3 accurately ripped (confidence 4) [28278F7B] (AR v2)
Track 4 accurately ripped (confidence 4) [F85FB81D] (AR v2)
Track 5 accurately ripped (confidence 4) [412EEEB9] (AR v2)
Track 6 accurately ripped (confidence 4) [5809F48C] (AR v2)
Track 7 accurately ripped (confidence 4) [68AF614E] (AR v2)
Track 8 accurately ripped (confidence 4) [0033552A] (AR v2)
Track 9 accurately ripped (confidence 4) [A29EBD80] (AR v2)
Track 10 accurately ripped (confidence 4) [E04B4EF8] (AR v2)
All tracks accurately ripped
End of status report
---- CUETools DB Plugin V2.1.6
[CTDB TOCID: 6v3ltdWiDuX0tApxSafLrR0qKUQ-] found
Submit result: 6v3ltdWiDuX0tApxSafLrR0qKUQ- has been confirmed
Track | CTDB Status
1 | (1/1) Accurately ripped
2 | (1/1) Accurately ripped
3 | (1/1) Accurately ripped
4 | (1/1) Accurately ripped
5 | (1/1) Accurately ripped
6 | (1/1) Accurately ripped
7 | (1/1) Accurately ripped
8 | (1/1) Accurately ripped
9 | (1/1) Accurately ripped
10 | (1/1) Accurately ripped
==== Log checksum 871CA29034118F7A57B5C02CA81EF2CED6D33608C2EF78A7D3045CD93422F88C ====
-

To download the file disable ad blocking, and reload the page.

disable adblock How to disable ad blocking?

Download by magnet link 1.97 GB Download Torrent

Login using:

Загрузка...

Similar topics

(Progressive/Power Metal) Ars Nova - Sombra Y Luz - 2018, MP3, 320 kbps
 145 MB   0 | 0   15-Dec-18 04:45   2


   
Current time is: 18-Dec 19:58 :: All times are UTC + 3