-Fairyland - Дискография (Full Length) (3CD)- Жанр: Symphonic Power Metal
Носитель: CD
Год издания: 2003-2009
Издатель (лейбл): Avalon/Marquee Inc./Napalm Records
Страна-производитель диска: Japan/Germany
Страна исполнителя: France (Nice, Provence-Alpes-Côte d'Azur)
Аудиокодек: FLAC (*.flac)
Тип рипа: image+.cue
Битрейт аудио: lossless
Продолжительность: 03:03:45
Источник (релизер): Собственные CD
Наличие сканов: Да (Complete 600 DPI)
Доп. информация: Encyclopaedia Metallum
-

2003 - [CD] Of Wars In Osyrhia (Japanese Edition) (Avalon/Marquee Inc. MICP-10358) [01:05:13]

01. And So Came the Storm
02. Ride with the Sun
03. Doryan the Enlightened
04. The Storyteller
05. Fight for Your King
06. On the Path to Fury
07. Rebirth
08. The Fellowship
09. A Dark Omen
10. The Army of the White Mountains
11. Of Wars in Osyrhia
12. Guardian Stones (Bonus Track)
Elisa C. Martín - Vocals
Philippe Giordana - Keyboards
Willdric Lievin - Drums, Guitars, Bass
Anthony Parker - Guitars

Лог создания рипа

Exact Audio Copy V1.3 from 2. September 2016
EAC extraction logfile from 6. April 2017, 18:28
Fairyland / Of Wars in Osyrhia (Japan)
Used drive : MATSHITADVD-RAM UJ8G6 Adapter: 1 ID: 0
Read mode : Secure
Utilize accurate stream : Yes
Defeat audio cache : Yes
Make use of C2 pointers : No
Read offset correction : 103
Overread into Lead-In and Lead-Out : No
Fill up missing offset samples with silence : Yes
Delete leading and trailing silent blocks : No
Null samples used in CRC calculations : Yes
Used interface : Native Win32 interface for Win NT & 2000
Used output format : User Defined Encoder
Selected bitrate : 1024 kBit/s
Quality : High
Add ID3 tag : No
Command line compressor : C:\Program Files (x86)\Exact Audio Copy\FLAC\FLAC.EXE
Additional command line options : -V -8 -T "Date=%year%" -T"Genre=%genre%" -T"COMMENT=Ripped by Ilijan - ilko" -8 -V %source%
TOC of the extracted CD
Track | Start | Length | Start sector | End sector
---------------------------------------------------------
1 | 0:00.00 | 1:26.30 | 0 | 6479
2 | 1:26.30 | 4:54.15 | 6480 | 28544
3 | 6:20.45 | 5:43.54 | 28545 | 54323
4 | 12:04.24 | 3:48.60 | 54324 | 71483
5 | 15:53.09 | 5:42.47 | 71484 | 97180
6 | 21:35.56 | 5:37.09 | 97181 | 122464
7 | 27:12.65 | 4:30.15 | 122465 | 142729
8 | 31:43.05 | 6:24.11 | 142730 | 171540
9 | 38:07.16 | 5:56.03 | 171541 | 198243
10 | 44:03.19 | 6:01.27 | 198244 | 225345
11 | 50:04.46 | 10:55.51 | 225346 | 274521
12 | 61:00.22 | 4:13.36 | 274522 | 293532
Range status and errors
Selected range
Filename D:\ilko\Fairyland - Of Wars in Osyrhia (Japan).wav
Peak level 99.8 %
Extraction speed 4.4 X
Range quality 100.0 %
Test CRC FFF45D04
Copy CRC FFF45D04
Copy OK
No errors occurred
AccurateRip summary
Track 1 accurately ripped (confidence 3) [FDE96649] (AR v2)
Track 2 accurately ripped (confidence 3) [7A079805] (AR v2)
Track 3 accurately ripped (confidence 3) [BE3DE252] (AR v2)
Track 4 accurately ripped (confidence 3) [B133E7F1] (AR v2)
Track 5 accurately ripped (confidence 3) [07F908D4] (AR v2)
Track 6 accurately ripped (confidence 3) [B93E9A82] (AR v2)
Track 7 accurately ripped (confidence 3) [33DC594D] (AR v2)
Track 8 accurately ripped (confidence 3) [B50F775B] (AR v2)
Track 9 accurately ripped (confidence 3) [F1CBC183] (AR v2)
Track 10 accurately ripped (confidence 3) [1ABB359A] (AR v2)
Track 11 accurately ripped (confidence 3) [6C421ED6] (AR v2)
Track 12 accurately ripped (confidence 3) [FE1B06D4] (AR v2)
All tracks accurately ripped
End of status report
---- CUETools DB Plugin V2.1.6
[CTDB TOCID: sJwI.0WcoFVp7pWtdxjp0H1HU6Q-] found
Submit result: sJwI.0WcoFVp7pWtdxjp0H1HU6Q- has been confirmed
Track | CTDB Status
1 | (35/36) Accurately ripped
2 | (35/36) Accurately ripped
3 | (35/36) Accurately ripped
4 | (35/36) Accurately ripped
5 | (35/36) Accurately ripped
6 | (35/36) Accurately ripped
7 | (35/36) Accurately ripped
8 | (35/36) Accurately ripped
9 | (35/36) Accurately ripped
10 | (33/36) Accurately ripped
11 | (34/36) Accurately ripped
12 | (33/36) Accurately ripped
==== Log checksum 4EED566D3A4F2375563576889AAA87FFA4EFC8EE0725CF5BCFE0E5ACC940E73E ====
-

2006 - [CD] The Fall Of An Empire (Japanese Edition) (Avalon/Marquee Inc. MICP-10610) [01:08:14]

01. Endgame
02. The Fall of an Empire
03. Lost in the Dark Lands
04. Slaves Forlorn
05. The Awakening
06. Eldanie Uellë
07. Clanner of the Light
08. To the Havenrod
09. The Walls of Laemnil
10. Anmorkenta
11. In Duna
12. The Story Remains
13. Look into Lost Years
14. Across the Endless Sea (Bonus Track)
Max Leclercq - Vocals
Philippe Giordana - Keyboards
Anthony Parker - Guitars
Thomas Cesario - Guitars, Bass
Pierre-Emmanuel Desfray - Drums

Лог создания рипа

Exact Audio Copy V1.3 from 2. September 2016
EAC extraction logfile from 6. April 2017, 18:53
Fairyland / The Fall of an Empire (Japan)
Used drive : ATAPI iHAS122 W Adapter: 2 ID: 0
Read mode : Secure
Utilize accurate stream : Yes
Defeat audio cache : Yes
Make use of C2 pointers : No
Read offset correction : 48
Overread into Lead-In and Lead-Out : No
Fill up missing offset samples with silence : Yes
Delete leading and trailing silent blocks : No
Null samples used in CRC calculations : Yes
Used interface : Installed external ASPI interface
Used output format : User Defined Encoder
Selected bitrate : 1024 kBit/s
Quality : High
Add ID3 tag : No
Command line compressor : C:\Program Files\FLAC\flac.exe
Additional command line options : -V -8 -T "Date=%year%" -T "Genre=%genre%" -T"COMMENT=Ripped by Ilijan - ilko" -8 -V %source%
TOC of the extracted CD
Track | Start | Length | Start sector | End sector
---------------------------------------------------------
1 | 0:00.00 | 1:16.29 | 0 | 5728
2 | 1:16.29 | 5:55.52 | 5729 | 32405
3 | 7:12.06 | 6:01.23 | 32406 | 59503
4 | 13:13.29 | 1:11.15 | 59504 | 64843
5 | 14:24.44 | 4:50.68 | 64844 | 86661
6 | 19:15.37 | 5:21.35 | 86662 | 110771
7 | 24:36.72 | 6:07.26 | 110772 | 138322
8 | 30:44.23 | 1:05.05 | 138323 | 143202
9 | 31:49.28 | 5:57.42 | 143203 | 170019
10 | 37:46.70 | 6:01.24 | 170020 | 197118
11 | 43:48.19 | 5:02.03 | 197119 | 219771
12 | 48:50.22 | 10:38.07 | 219772 | 267628
13 | 59:28.29 | 3:14.43 | 267629 | 282221
14 | 62:42.72 | 5:31.30 | 282222 | 307076
Range status and errors
Selected range
Filename D:\ilko\Fairyland - The Fall of an Empire (Japan).wav
Peak level 94.4 %
Extraction speed 4.5 X
Range quality 100.0 %
Test CRC 2A7D8381
Copy CRC 2A7D8381
Copy OK
No errors occurred
AccurateRip summary
Track 1 cannot be verified as accurate (confidence 2) [94799C7B], AccurateRip returned [09A7F59B] (AR v2)
Track 2 cannot be verified as accurate (confidence 2) [0E817636], AccurateRip returned [E30C2FDE] (AR v2)
Track 3 cannot be verified as accurate (confidence 2) [532CE824], AccurateRip returned [AB306462] (AR v2)
Track 4 cannot be verified as accurate (confidence 2) [DF60FC91], AccurateRip returned [7F6F3E67] (AR v2)
Track 5 cannot be verified as accurate (confidence 2) [59E08C5A], AccurateRip returned [793ADE22] (AR v2)
Track 6 cannot be verified as accurate (confidence 2) [E8B3AC7D], AccurateRip returned [78027772] (AR v2)
Track 7 cannot be verified as accurate (confidence 2) [83D75A86], AccurateRip returned [A2B8B6F0] (AR v2)
Track 8 cannot be verified as accurate (confidence 2) [44457A02], AccurateRip returned [8DBFBEFD] (AR v2)
Track 9 cannot be verified as accurate (confidence 2) [144D6FE3], AccurateRip returned [3AACA603] (AR v2)
Track 10 cannot be verified as accurate (confidence 2) [3D235192], AccurateRip returned [FBF6C1F3] (AR v2)
Track 11 cannot be verified as accurate (confidence 2) [81399B91], AccurateRip returned [AAE34B77] (AR v2)
Track 12 cannot be verified as accurate (confidence 2) [6055033E], AccurateRip returned [157C5161] (AR v2)
Track 13 cannot be verified as accurate (confidence 2) [30ECED13], AccurateRip returned [C8C9AF65] (AR v2)
Track 14 cannot be verified as accurate (confidence 2) [20ADA1C5], AccurateRip returned [CF41EAAA] (AR v2)
No tracks could be verified as accurate
You may have a different pressing from the one(s) in the database
End of status report
---- CUETools DB Plugin V2.1.6
[CTDB TOCID: goLKKzJ4Lkb.nmm.UF7EiygtBDs-] found
Submit result: goLKKzJ4Lkb.nmm.UF7EiygtBDs- has been confirmed
Track | CTDB Status
1 | (8/8) Accurately ripped
2 | (8/8) Accurately ripped
3 | (8/8) Accurately ripped
4 | (8/8) Accurately ripped
5 | (8/8) Accurately ripped
6 | (8/8) Accurately ripped
7 | (8/8) Accurately ripped
8 | (8/8) Accurately ripped
9 | (8/8) Accurately ripped
10 | (8/8) Accurately ripped
11 | (8/8) Accurately ripped
12 | (8/8) Accurately ripped
13 | (8/8) Accurately ripped
14 | (8/8) Accurately ripped
==== Log checksum 16EA04F0C7934AAB608A8CB70F39871C82E799785F95A65929D7A30602563BC1 ====
-

2009 - [CD] Score To A New Beginning (Original Recording) (Napalm Records NPR 273) [00:50:18]

01. Opening Credits
02. Across the Endless Sea Part II
03. Assault on the Shore
04. Master of the Waves
05. A Soldier's Letter
06. Godsent
07. At the Gates of Morken
08. Rise of the Giants
09. Score to a New Beginning
10. End Credits
Marco Sandron - Vocals
Philippe Giordana - Keyboards
Anthony Parker - Guitars
Fabio D'Amore - Bass
Chris Menta - Guitars
Willdric Lievin - Drums

Лог создания рипа

Exact Audio Copy V1.3 from 2. September 2016
EAC extraction logfile from 6. April 2017, 16:31
Fairyland / Score to a New Beginning
Used drive : MATSHITADVD-RAM UJ8G6 Adapter: 1 ID: 0
Read mode : Secure
Utilize accurate stream : Yes
Defeat audio cache : Yes
Make use of C2 pointers : No
Read offset correction : 103
Overread into Lead-In and Lead-Out : No
Fill up missing offset samples with silence : Yes
Delete leading and trailing silent blocks : No
Null samples used in CRC calculations : Yes
Used interface : Native Win32 interface for Win NT & 2000
Used output format : User Defined Encoder
Selected bitrate : 1024 kBit/s
Quality : High
Add ID3 tag : No
Command line compressor : C:\Program Files (x86)\Exact Audio Copy\FLAC\FLAC.EXE
Additional command line options : -V -8 -T "Date=%year%" -T"Genre=%genre%" -T"COMMENT=Ripped by Ilijan - ilko" -8 -V %source%
TOC of the extracted CD
Track | Start | Length | Start sector | End sector
---------------------------------------------------------
1 | 0:00.00 | 1:28.56 | 0 | 6655
2 | 1:28.56 | 5:17.55 | 6656 | 30485
3 | 6:46.36 | 5:08.73 | 30486 | 53658
4 | 11:55.34 | 6:08.09 | 53659 | 81267
5 | 18:03.43 | 5:33.19 | 81268 | 106261
6 | 23:36.62 | 4:54.67 | 106262 | 128378
7 | 28:31.54 | 4:55.52 | 128379 | 150555
8 | 33:27.31 | 4:19.24 | 150556 | 170004
9 | 37:46.55 | 9:03.28 | 170005 | 210757
10 | 46:50.08 | 3:28.62 | 210758 | 226419
Range status and errors
Selected range
Filename D:\ilko\Fairyland - Score to a New Beginning.wav
Peak level 100.0 %
Extraction speed 4.0 X
Range quality 100.0 %
Test CRC 649BFCB3
Copy CRC 649BFCB3
Copy OK
No errors occurred
AccurateRip summary
Track 1 accurately ripped (confidence 9) [D9D870B7] (AR v2)
Track 2 accurately ripped (confidence 9) [63FA7BEF] (AR v2)
Track 3 accurately ripped (confidence 9) [337C0397] (AR v2)
Track 4 accurately ripped (confidence 10) [A0FD30AF] (AR v2)
Track 5 accurately ripped (confidence 9) [8B010CF9] (AR v2)
Track 6 accurately ripped (confidence 9) [3105B646] (AR v2)
Track 7 accurately ripped (confidence 9) [4141F3FA] (AR v2)
Track 8 accurately ripped (confidence 9) [16D49836] (AR v2)
Track 9 accurately ripped (confidence 10) [BD305646] (AR v2)
Track 10 accurately ripped (confidence 9) [3DD22DD7] (AR v2)
All tracks accurately ripped
End of status report
---- CUETools DB Plugin V2.1.6
[CTDB TOCID: g_I1pH7NFjK8bLIxx1hdLR.v6HQ-] found
Submit result: g_I1pH7NFjK8bLIxx1hdLR.v6HQ- has been confirmed
Track | CTDB Status
1 | (30/30) Accurately ripped
2 | (30/30) Accurately ripped
3 | (30/30) Accurately ripped
4 | (30/30) Accurately ripped
5 | (30/30) Accurately ripped
6 | (30/30) Accurately ripped
7 | (30/30) Accurately ripped
8 | (30/30) Accurately ripped
9 | (30/30) Accurately ripped
10 | (30/30) Accurately ripped
==== Log checksum C151E0C79369320D2BDD920CD2C99C930AE45E75004B53466CDBB8C9C8CC39FA ====
-

To download the file disable ad blocking, and reload the page.

disable adblock How to disable ad blocking?

Download by magnet link 1.56 GB Download Torrent

Login using:

Загрузка...

Similar topics

(Symphonic Power Metal) Eternal Dream - Daementia - 2018, MP3, 320 kbps
 129 MB   0 | 0   10-Dec-18 17:00   5


   
Current time is: 18-Dec 20:32 :: All times are UTC + 3