Eden / Eden-- Жанр: Traditional Heavy Metal
Носитель: CD
Страна-производитель диска (релиза): USA
Год издания: 1986 / 2016
Издатель (лейбл): Divebomb Records
Номер по каталогу: DIVE117
Страна исполнителя (группы): USA
Аудиокодек: FLAC (*.flac)
Тип рипа: image+.cue
Битрейт аудио: lossless
Продолжительность: 75:52
Источник (релизер): Kantor1975 (выкладывается по его просьбе)
Наличие сканов в содержимом раздачи: сетевые/Art

Треклист:

1 Pound It Out 4:07
2 The Looking Glass 3:26
3 Judgement Day 3:19
4 Morte/Gone Too Far 5:43
5 Victim Of The World 3:55
6 Panic In The City 4:16
7 The Bigger They Are 3:27
8 Sealed With A Kiss 3:20
9 Fighting Mad 4:46
10 Untraveled Waters 1:16
11 She Burns (With Fire) 5:10
Bonus Tracks
Demo - 1987

12 Satisfaction Guaranteed 3:22
13 The Real Me 4:14
14 White Mice 4:00
15 Lost In The Race 4:09
16 Rome Burns 3:31
Demo - 1985
17 Pound It Out 3:32
Judgement Day - 2005/2016
18 Hot Rods To Hell 3:17
19 Suicide 3:00
20 The Deep
--

Лог создания рипа

Exact Audio Copy V1.3 from 2. September 2016
Отчёт EAC об извлечении, выполненном 2. апреля 2017, 13:34
Eden / Eden (Deluxe Edition)
Дисковод: ASUS DRW-2014S1T Adapter: 2 ID: 1
Режим чтения : Достоверность
Использование точного потока : Да
Отключение кэша аудио : Да
Использование указателей C2 : Нет
Коррекция смещения при чтении : 6
Способность читать области Lead-in и Lead-out : Нет
Заполнение пропущенных сэмплов тишиной : Да
Удаление блоков с тишиной в начале и конце : Нет
При вычислениях CRC использовались нулевые сэмплы : Да
Интерфейс : Установленный внешний ASPI-интерфейс
Выходной формат : Пользовательский кодировщик
Выбранный битрейт : 128 kBit/s
Качество : Высокий
Добавление ID3-тега : Нет
Утилита сжатия : C:\Program Files\Exact Audio Copy\Flac\flac.exe
Дополнительные параметры : -V -8 -T "Date=%year%" -T "Genre=%genre%" %source%
TOC извлечённого CD
Трек | Старт | Длительность | Начальный сектор | Конечный сектор
---------------------------------------------------------------------
1 | 0:00.00 | 4:07.51 | 0 | 18575
2 | 4:07.51 | 3:26.03 | 18576 | 34028
3 | 7:33.54 | 3:19.17 | 34029 | 48970
4 | 10:52.71 | 5:43.18 | 48971 | 74713
5 | 16:36.14 | 3:55.10 | 74714 | 92348
6 | 20:31.24 | 4:16.61 | 92349 | 111609
7 | 24:48.10 | 3:27.55 | 111610 | 127189
8 | 28:15.65 | 3:20.00 | 127190 | 142189
9 | 31:35.65 | 4:46.01 | 142190 | 163640
10 | 36:21.66 | 1:16.28 | 163641 | 169368
11 | 37:38.19 | 5:09.74 | 169369 | 192617
12 | 42:48.18 | 3:22.52 | 192618 | 207819
13 | 46:10.70 | 4:14.44 | 207820 | 226913
14 | 50:25.39 | 3:59.74 | 226914 | 244912
15 | 54:25.38 | 4:09.38 | 244913 | 263625
16 | 58:35.01 | 3:31.51 | 263626 | 279501
17 | 62:06.52 | 3:32.33 | 279502 | 295434
18 | 65:39.10 | 3:17.37 | 295435 | 310246
19 | 68:56.47 | 3:00.34 | 310247 | 323780
20 | 71:57.06 | 3:55.25 | 323781 | 341430
Характеристики диапазона извлечения и сообщения об ошибках
Выбранный диапазон
Имя файла D:\Eden - Eden (Deluxe Edition).wav
Пиковый уровень 100.0 %
Скорость извлечения 6.2 X
Качество диапазона 99.9 %
CRC теста CA48969A
CRC копии CA48969A
Копирование... OK
Ошибок не произошло
AccurateRip: сводка
Трек 1 отсутствует в базе данных
Трек 2 отсутствует в базе данных
Трек 3 отсутствует в базе данных
Трек 4 отсутствует в базе данных
Трек 5 отсутствует в базе данных
Трек 6 отсутствует в базе данных
Трек 7 отсутствует в базе данных
Трек 8 отсутствует в базе данных
Трек 9 отсутствует в базе данных
Трек 10 отсутствует в базе данных
Трек 11 отсутствует в базе данных
Трек 12 отсутствует в базе данных
Трек 13 отсутствует в базе данных
Трек 14 отсутствует в базе данных
Трек 15 отсутствует в базе данных
Трек 16 отсутствует в базе данных
Трек 17 отсутствует в базе данных
Трек 18 отсутствует в базе данных
Трек 19 отсутствует в базе данных
Трек 20 отсутствует в базе данных
Ни одного трека нет в базе AccurateRip
Конец отчёта
---- CUETools DB Plugin V2.1.6
[CTDB TOCID: ilQXgztBvNg1r3j0JHlOFQUEssE-] disk not present in database
Submit result: ilQXgztBvNg1r3j0JHlOFQUEssE- has been uploaded
==== Контрольная сумма отчёта 03C3A73F82EB73A290B7AED92975E40FDF8D15EBCBAC45D484ED8885B3DCBDC3 ====

Лог проверки качества

-----------------------
DON'T MODIFY THIS FILE
-----------------------
PERFORMER: auCDtect Task Manager, ver. 1.6.0 RC1 build 1.6.0.1
Copyright (c) 2008-2010 y-soft. All rights reserved
http://y-soft.org
ANALYZER: auCDtect: CD records authenticity detector, version 0.8.2
Copyright (c) 2004 Oleg Berngardt. All rights reserved.
Copyright (c) 2004 Alexander Djourik. All rights reserved.
FILE: Eden - Eden (Deluxe Edition).flac
Size: 573243007 Hash: 0322882F42EB99C25D7C218D07A5E17E Accuracy: -m0
Conclusion: CDDA 100%
Signature: 7F3B9D7B546BD8E9C4B165E460F2C9A7D678E1E0
(Heavy Metal) Eden - Eden - 1985 (переиздание 2003 дополненное), MP3 , 320 kbps

If you like the topic, please click share to help develop our site.

To download the file disable ad blocking, and reload the page.

disable adblock How to disable ad blocking?

Download by magnet link 547 MB Download Torrent

Login using:

Similar topics



   
Current time is: 18-Feb 21:05 :: All times are UTC + 3