Operadyse / Pandemonium (Japan Edition)
Жанр: Symphonic Power Metal
Носитель: CD
Страна-производитель диска: Japan
Год издания: 2013
Издатель (лейбл): Avalon Marquee Inc.
Номер по каталогу: MICP 11118
Страна: France
Аудиокодек: FLAC (*.flac)
Тип рипа: image+.cue
Битрейт аудио: lossless
Продолжительность: 48:47
Источник (релизер): My CD
Наличие сканов в содержимом раздачи: да
Треклист:
01. Rise 01:41
02. Celestial Sword 04:57
03. Unfold Legend 04:02
04. Keeper Of The Flame 03:36
05. The Path Of Divine 05:51
06. Fairies' Secret Garden 05:06
07. Arkanya 04:54
08. Pandemonium 06:21
09. Nevermore 06:04
10. Frozen 02:59
11. My Paradise (Bonus Track) 03:15

Лог создания рипа

Exact Audio Copy V1.1 from 23. June 2015
EAC extraction logfile from 5. April 2017, 12:21
Operadyse / Pandemonium (Japan Edition)
Used drive : HP DVD Writer 1170d Adapter: 1 ID: 1
Read mode : Secure
Utilize accurate stream : Yes
Defeat audio cache : Yes
Make use of C2 pointers : No
Read offset correction : 6
Overread into Lead-In and Lead-Out : No
Fill up missing offset samples with silence : Yes
Delete leading and trailing silent blocks : No
Null samples used in CRC calculations : Yes
Used interface : Native Win32 interface for Win NT & 2000
Used output format : User Defined Encoder
Selected bitrate : 1024 kBit/s
Quality : High
Add ID3 tag : No
Command line compressor : C:\Program Files (x86)\Exact Audio Copy\Flac\flac.exe
Additional command line options : -V -8 -T "Date=%year%" -T "Genre=%genre%" %source%
TOC of the extracted CD
Track | Start | Length | Start sector | End sector
---------------------------------------------------------
1 | 0:00.00 | 1:40.73 | 0 | 7572
2 | 1:40.73 | 4:57.22 | 7573 | 29869
3 | 6:38.20 | 4:01.65 | 29870 | 48009
4 | 10:40.10 | 3:36.25 | 48010 | 64234
5 | 14:16.35 | 5:51.32 | 64235 | 90591
6 | 20:07.67 | 5:06.02 | 90592 | 113543
7 | 25:13.69 | 4:54.10 | 113544 | 135603
8 | 30:08.04 | 6:21.28 | 135604 | 164206
9 | 36:29.32 | 6:04.13 | 164207 | 191519
10 | 42:33.45 | 2:58.52 | 191520 | 204921
11 | 45:32.22 | 3:15.37 | 204922 | 219583
Range status and errors
Selected range
Filename C:\EAC\Ungern666\Operadyse - Pandemonium (Japan Edition).wav
Peak level 99.7 %
Extraction speed 6.8 X
Range quality 100.0 %
Test CRC DFAA79AC
Copy CRC DFAA79AC
Copy OK
No errors occurred
AccurateRip summary
Track 1 accurately ripped (confidence 5) [726DE3AE] (AR v2)
Track 2 accurately ripped (confidence 5) [B862F6B1] (AR v2)
Track 3 accurately ripped (confidence 5) [5C8C6A43] (AR v2)
Track 4 accurately ripped (confidence 5) [EF9A7C4A] (AR v2)
Track 5 accurately ripped (confidence 5) [CE2310C1] (AR v2)
Track 6 accurately ripped (confidence 5) [642B965F] (AR v2)
Track 7 accurately ripped (confidence 5) [1218A94F] (AR v2)
Track 8 accurately ripped (confidence 5) [53CF8F8C] (AR v2)
Track 9 accurately ripped (confidence 5) [CBE3BD82] (AR v2)
Track 10 accurately ripped (confidence 5) [7053EE41] (AR v2)
Track 11 accurately ripped (confidence 5) [DC989CB7] (AR v2)
All tracks accurately ripped
End of status report
---- CUETools DB Plugin V2.1.6
[CTDB TOCID: Al4zjALyzNgUDKgoArWRzom9y3I-] found
Submit result: Al4zjALyzNgUDKgoArWRzom9y3I- has been confirmed
Track | CTDB Status
1 | (5/5) Accurately ripped
2 | (5/5) Accurately ripped
3 | (5/5) Accurately ripped
4 | (5/5) Accurately ripped
5 | (5/5) Accurately ripped
6 | (5/5) Accurately ripped
7 | (5/5) Accurately ripped
8 | (5/5) Accurately ripped
9 | (5/5) Accurately ripped
10 | (5/5) Accurately ripped
11 | (5/5) Accurately ripped
==== Log checksum 3C27C8B0877B25B177A0932BE68CB72DC01FB63AC49A03D689B8E94F38DF8C8B ====
Материал предназначен для ознакомления!

To download the file disable ad blocking, and reload the page.

disable adblock How to disable ad blocking?

Download by magnet link 426 MB Download Torrent

Login using:

Загрузка...

Similar topics

(Symphonic Power Metal) Eternal Dream - Daementia - 2018, MP3, 320 kbps
 129 MB   0 | 0   10-Dec-18 17:00   3


   
Current time is: 16-Dec 06:22 :: All times are UTC + 3