Blaze Bayley / Endure and Survive (Infinite Entanglement Part II)
Жанр: Heavy Metal
Носитель: CD
Год издания: 2017
Издатель (лейбл): Blaze Bayley Recordings
Номер по каталогу: BBR 012
Страна исполнителя (группы): UK
Аудиокодек: FLAC (*.flac)
Тип рипа: image+.cue
Битрейт аудио: lossless
Продолжительность: 47:29
Источник (релизер): Hellwings71
Наличие сканов в содержимом раздачи: да
Треклист:
01. Endure and Survive
02. Escape Velocity
03. Blood
04. Eating Lies
05. Destroyer
06. Dawn of the Dead Son
07. Remember
08. Fight Back
09. The World Is Turning the Wrong Way
10. Together We Can Move the Sun

Лог создания рипа

Exact Audio Copy V1.3 from 2. September 2016
EAC extraction logfile from 3. April 2017, 17:24
Blaze Bayley / Endure And Survive (Infinite Entanglement Part II)
Used drive : PIONEER DVD-RW DVR-221 Adapter: 5 ID: 0
Read mode : Secure
Utilize accurate stream : Yes
Defeat audio cache : Yes
Make use of C2 pointers : No
Read offset correction : 6
Overread into Lead-In and Lead-Out : No
Fill up missing offset samples with silence : Yes
Delete leading and trailing silent blocks : No
Null samples used in CRC calculations : Yes
Used interface : Installed external ASPI interface
Used output format : User Defined Encoder
Selected bitrate : 1024 kBit/s
Quality : High
Add ID3 tag : No
Command line compressor : C:\Program Files\Exact Audio Copy\FLAC\FLAC.EXE
Additional command line options : -V -8 -T "Date=%year%" -T "Genre=%genre%" -T "COMMENT=Ripped by Hellwings71" -8 -V %source%
TOC of the extracted CD
Track | Start | Length | Start sector | End sector
---------------------------------------------------------
1 | 0:00.00 | 4:27.22 | 0 | 20046
2 | 4:27.22 | 3:27.43 | 20047 | 35614
3 | 7:54.65 | 4:41.31 | 35615 | 56720
4 | 12:36.21 | 4:48.69 | 56721 | 78389
5 | 17:25.15 | 4:30.71 | 78390 | 98710
6 | 21:56.11 | 5:19.48 | 98711 | 122683
7 | 27:15.59 | 3:58.05 | 122684 | 140538
8 | 31:13.64 | 3:25.49 | 140539 | 155962
9 | 34:39.38 | 4:35.40 | 155963 | 176627
10 | 39:15.03 | 8:14.56 | 176628 | 213733
Range status and errors
Selected range
Filename F:\Program files\CD Images\Hellwings71\BB-EAS(IEPII)\Blaze Bayley - Endure And Survive (Infinite Entanglement Part II).wav
Peak level 100.0 %
Extraction speed 6.7 X
Range quality 100.0 %
Test CRC CB0CC242
Copy CRC CB0CC242
Copy OK
No errors occurred
AccurateRip summary
Track 1 not present in database
Track 2 not present in database
Track 3 not present in database
Track 4 not present in database
Track 5 not present in database
Track 6 not present in database
Track 7 not present in database
Track 8 not present in database
Track 9 not present in database
Track 10 not present in database
None of the tracks are present in the AccurateRip database
End of status report
---- CUETools DB Plugin V2.1.6
[CTDB TOCID: SaievyXxVciEumAI_rxtOsMh52Q-] found
Submit result: SaievyXxVciEumAI_rxtOsMh52Q- has been confirmed
Track | CTDB Status
1 | (16/16) Accurately ripped
2 | (16/16) Accurately ripped
3 | (16/16) Accurately ripped
4 | (16/16) Accurately ripped
5 | (16/16) Accurately ripped
6 | (16/16) Accurately ripped
7 | (16/16) Accurately ripped
8 | (16/16) Accurately ripped
9 | (16/16) Accurately ripped
10 | (16/16) Accurately ripped
==== Log checksum 2D4F81A8308ED36085902D2C7BD687BB80E8F1CEF462CE2D6BE3176B55378E4C ====

To download the file disable ad blocking, and reload the page.

disable adblock How to disable ad blocking?

Download by magnet link 433 MB Download Torrent

Login using:

Загрузка...

Similar topics

(Heavy Metal) Furious - Dead Mark - 2017, MP3, 320 kbps
 179 MB   0 | 0   26-May-17 21:27   0
(Heavy / Power Metal) Afterdreams - Nightmare - 2017, MP3, 320 kbps
 111 MB   0 | 0   26-May-17 21:27   1
(Heavy Metal, Groove Metal) Blaxem - Who Cares - 2017, MP3, 320 kbps
 86 MB   0 | 0   26-May-17 21:27   0
(Heavy Metal/Progressive) Wine Guardian - Onirica - 2017, MP3, 320 kbps
 115 MB   0 | 0   26-May-17 21:27   0


   
Current time is: 16-Dec 13:02 :: All times are UTC + 3