-Secret Sphere - Дискография (10CD)- Жанр: Melodic Power/Progressive Metal
Носитель: CD
Год издания: 1999-2016
Издатель (лейбл): Avalon/Marquee Inc./Scarlet Records/Sun Brain Co., Ltd./King Record Co., Ltd.
Страна-производитель диска: Japan/Italy
Страна исполнителя: Italy (Alessandria, Piedmont)
Аудиокодек: FLAC (*.flac)
Тип рипа: image+.cue
Битрейт аудио: lossless
Продолжительность: 09:13:27
Источник (релизер): Собственные CD
Наличие сканов: Да (Complete 600 DPI)
Доп. информация: Encyclopaedia Metallum
-

1999 - [CD] Mistress Of The Shadowlight (Japanese Edition) (Sun Brain Co., Ltd. SCCD-13) [00:52:28]

01. Dawn of Time
02. Age of Wizard
03. Recall of the Valkyrie
04. On the Wings of Sun
05. Twilight of Fairy Tale
06. White Lion
07. Labyrinth of Glass
08. Seren
09. Secret Sphere
10. Last Moment of Eternity (Bonus Track)
Roberto "Ramon" Messina - Vocals
Aldo Lonobile - Guitars
Luca Cartasegna - Drums
Paolo "Paco" Gianotti - Guitars
Andrea Buratto - Bass
Antonio Agate - Keyboards

Лог создания рипа

Exact Audio Copy V1.3 from 2. September 2016
EAC extraction logfile from 3. April 2017, 14:30
Secret Sphere / Mistress Of The Shadowlight (Japan)
Used drive : MATSHITADVD-RAM UJ8G6 Adapter: 1 ID: 0
Read mode : Secure
Utilize accurate stream : Yes
Defeat audio cache : Yes
Make use of C2 pointers : No
Read offset correction : 103
Overread into Lead-In and Lead-Out : No
Fill up missing offset samples with silence : Yes
Delete leading and trailing silent blocks : No
Null samples used in CRC calculations : Yes
Used interface : Native Win32 interface for Win NT & 2000
Used output format : User Defined Encoder
Selected bitrate : 1024 kBit/s
Quality : High
Add ID3 tag : No
Command line compressor : C:\Program Files (x86)\Exact Audio Copy\FLAC\FLAC.EXE
Additional command line options : -V -8 -T "Date=%year%" -T"Genre=%genre%" -T"COMMENT=Ripped by Ilijan - ilko" -8 -V %source%
TOC of the extracted CD
Track | Start | Length | Start sector | End sector
---------------------------------------------------------
1 | 0:00.00 | 1:21.45 | 0 | 6119
2 | 1:21.45 | 6:08.10 | 6120 | 33729
3 | 7:29.55 | 5:54.12 | 33730 | 60291
4 | 13:23.67 | 5:20.05 | 60292 | 84296
5 | 18:43.72 | 5:14.43 | 84297 | 107889
6 | 23:58.40 | 7:50.57 | 107890 | 143196
7 | 31:49.22 | 5:34.00 | 143197 | 168246
8 | 37:23.22 | 2:07.70 | 168247 | 177841
9 | 39:31.17 | 10:33.15 | 177842 | 225331
10 | 50:04.32 | 2:24.33 | 225332 | 236164
Range status and errors
Selected range
Filename D:\ilko\Secret Sphere - Mistress Of The Shadowlight (Japan).wav
Peak level 97.5 %
Extraction speed 4.0 X
Range quality 100.0 %
Test CRC 36F32473
Copy CRC 36F32473
Copy OK
No errors occurred
AccurateRip summary
Track 1 accurately ripped (confidence 3) [A6FB6F7C] (AR v2)
Track 2 accurately ripped (confidence 3) [D2630F15] (AR v2)
Track 3 accurately ripped (confidence 3) [1A0F1828] (AR v2)
Track 4 accurately ripped (confidence 3) [32472619] (AR v2)
Track 5 accurately ripped (confidence 3) [F4A3DC97] (AR v2)
Track 6 accurately ripped (confidence 3) [F8C26B3C] (AR v2)
Track 7 accurately ripped (confidence 3) [5376C457] (AR v2)
Track 8 accurately ripped (confidence 3) [A3917D01] (AR v2)
Track 9 accurately ripped (confidence 3) [53DE6BB1] (AR v2)
Track 10 accurately ripped (confidence 3) [4B6717B8] (AR v2)
All tracks accurately ripped
End of status report
---- CUETools DB Plugin V2.1.6
[CTDB TOCID: 1fPr85rG2iGrBUdc9KqfovpQdFM-] found
Submit result: 1fPr85rG2iGrBUdc9KqfovpQdFM- has been confirmed
Track | CTDB Status
1 | (9/9) Accurately ripped
2 | (9/9) Accurately ripped
3 | (9/9) Accurately ripped
4 | (9/9) Accurately ripped
5 | (9/9) Accurately ripped
6 | (9/9) Accurately ripped
7 | (9/9) Accurately ripped
8 | (9/9) Accurately ripped
9 | (8/9) Accurately ripped
10 | (9/9) Accurately ripped
==== Log checksum 9DE0F05A422FA9C6CE955ACCFFD1769FA0022D3FA58602F267066EED4F283E83 ====
-

2001 - [CD] A Time Never Come (Japanese Edition) (Avalon/Marquee Inc. MICP-10229) [00:59:47]

01. Gate of Wisdom
02. Legend
03. Under the Flag of Mary Read
04. The Brave
05. Emotions
06. Oblivion
07. Lady of Silence
08. The Mistery of Love
09. Paganini's Nightmare (Theme from Caprice #5)
10. Lost Land of Lyonesse (Bonus Track)
11. Ascension
12. Hamelin
13. Dr. Faustus
Roberto "Ramon" Messina - Vocals
Aldo Lonobile - Guitars
Luca Cartasegna - Drums
Paolo "Paco" Gianotti - Guitars
Andrea Buratto - Bass
Antonio Agate - Keyboards

Лог создания рипа

Exact Audio Copy V1.3 from 2. September 2016
EAC extraction logfile from 3. April 2017, 15:03
Secret Sphere / A Time Never Come (Japan)
Used drive : MATSHITADVD-RAM UJ8G6 Adapter: 1 ID: 0
Read mode : Secure
Utilize accurate stream : Yes
Defeat audio cache : Yes
Make use of C2 pointers : No
Read offset correction : 103
Overread into Lead-In and Lead-Out : No
Fill up missing offset samples with silence : Yes
Delete leading and trailing silent blocks : No
Null samples used in CRC calculations : Yes
Used interface : Native Win32 interface for Win NT & 2000
Used output format : User Defined Encoder
Selected bitrate : 1024 kBit/s
Quality : High
Add ID3 tag : No
Command line compressor : C:\Program Files (x86)\Exact Audio Copy\FLAC\FLAC.EXE
Additional command line options : -V -8 -T "Date=%year%" -T"Genre=%genre%" -T"COMMENT=Ripped by Ilijan - ilko" -8 -V %source%
TOC of the extracted CD
Track | Start | Length | Start sector | End sector
---------------------------------------------------------
1 | 0:00.00 | 0:39.66 | 0 | 2990
2 | 0:39.66 | 6:15.46 | 2991 | 31161
3 | 6:55.37 | 7:24.35 | 31162 | 64496
4 | 14:19.72 | 7:15.49 | 64497 | 97170
5 | 21:35.46 | 1:26.68 | 97171 | 103688
6 | 23:02.39 | 4:37.66 | 103689 | 124529
7 | 27:40.30 | 5:37.09 | 124530 | 149813
8 | 33:17.39 | 6:54.09 | 149814 | 180872
9 | 40:11.48 | 1:03.44 | 180873 | 185641
10 | 41:15.17 | 4:26.68 | 185642 | 205659
11 | 45:42.10 | 0:56.57 | 205660 | 209916
12 | 46:38.67 | 4:49.61 | 209917 | 231652
13 | 51:28.53 | 8:19.08 | 231653 | 269085
Range status and errors
Selected range
Filename D:\ilko\Secret Sphere - A Time Never Come (Japan).wav
Peak level 100.0 %
Extraction speed 4.1 X
Range quality 100.0 %
Test CRC EA7559E6
Copy CRC EA7559E6
Copy OK
No errors occurred
AccurateRip summary
Track 1 accurately ripped (confidence 4) [CA0EC74F] (AR v2)
Track 2 accurately ripped (confidence 4) [66DF9371] (AR v2)
Track 3 accurately ripped (confidence 4) [A76CA9B8] (AR v2)
Track 4 accurately ripped (confidence 4) [A6FB1D4B] (AR v2)
Track 5 accurately ripped (confidence 4) [B319F177] (AR v2)
Track 6 accurately ripped (confidence 4) [6D4A900D] (AR v2)
Track 7 accurately ripped (confidence 4) [802F84DB] (AR v2)
Track 8 accurately ripped (confidence 4) [AD0FD2A7] (AR v2)
Track 9 accurately ripped (confidence 4) [E71FD985] (AR v2)
Track 10 accurately ripped (confidence 4) [47050125] (AR v2)
Track 11 accurately ripped (confidence 4) [C2EE6B77] (AR v2)
Track 12 accurately ripped (confidence 4) [197D9486] (AR v2)
Track 13 accurately ripped (confidence 2) [4743A8C0] (AR v2)
All tracks accurately ripped
End of status report
---- CUETools DB Plugin V2.1.6
[CTDB TOCID: hGLfTvaCQ4XhHcWDW.jw1fZNrpw-] found
Submit result: hGLfTvaCQ4XhHcWDW.jw1fZNrpw- has been confirmed
Track | CTDB Status
1 | (14/14) Accurately ripped
2 | (14/14) Accurately ripped
3 | (14/14) Accurately ripped
4 | (14/14) Accurately ripped
5 | (14/14) Accurately ripped
6 | (14/14) Accurately ripped
7 | (14/14) Accurately ripped
8 | (14/14) Accurately ripped
9 | (14/14) Accurately ripped
10 | (13/14) Accurately ripped, or (1/14) differs in 9 samples @02:15:08,03:10:14
11 | (13/14) Accurately ripped, or (1/14) differs in 2 samples @00:55:31
12 | (13/14) Accurately ripped, or (1/14) differs in 26 samples @00:27:33,04:35:44-04:35:45
13 | (10/14) Accurately ripped, or (1/14) differs in 13 samples @05:07:11,08:12:03,08:12:39-08:12:42
==== Log checksum 333C60646147EE038CE921B10A4E3A2615DF39409F0E9462C6CC56D096B98CCC ====
-

2003 - [CD] Scent Of Human Desire (Japanese Edition) (Avalon/Marquee Inc. MICP-10366) [00:57:05]

01. Rain
02. Still Here
03. 1000 Eyes Show
04. More Than Simple Emotions
05. Surrounding
06. Desire
07. Virgin Street 69
08. Runaway Train
09. Scent of a Woman
10. Life 1 (Walking Through the Dawn)
11. Life 2 (Daylight)
12. Kings of Metal (Manowar Cover) (Bonus Track)
Roberto "Ramon" Messina - Vocals
Aldo Lonobile - Guitars
Luca Cartasegna - Drums
Paolo "Paco" Gianotti - Guitars
Andrea Buratto - Bass
Antonio Agate - Keyboards

Лог создания рипа

Exact Audio Copy V1.3 from 2. September 2016
EAC extraction logfile from 3. April 2017, 15:34
Secret Sphere / Scent of Human Desire (Japan)
Used drive : MATSHITADVD-RAM UJ8G6 Adapter: 1 ID: 0
Read mode : Secure
Utilize accurate stream : Yes
Defeat audio cache : Yes
Make use of C2 pointers : No
Read offset correction : 103
Overread into Lead-In and Lead-Out : No
Fill up missing offset samples with silence : Yes
Delete leading and trailing silent blocks : No
Null samples used in CRC calculations : Yes
Used interface : Native Win32 interface for Win NT & 2000
Used output format : User Defined Encoder
Selected bitrate : 1024 kBit/s
Quality : High
Add ID3 tag : No
Command line compressor : C:\Program Files (x86)\Exact Audio Copy\FLAC\FLAC.EXE
Additional command line options : -V -8 -T "Date=%year%" -T"Genre=%genre%" -T"COMMENT=Ripped by Ilijan - ilko" -8 -V %source%
TOC of the extracted CD
Track | Start | Length | Start sector | End sector
---------------------------------------------------------
1 | 0:00.00 | 5:26.35 | 0 | 24484
2 | 5:26.35 | 3:01.24 | 24485 | 38083
3 | 8:27.59 | 5:45.64 | 38084 | 64022
4 | 14:13.48 | 4:01.35 | 64023 | 82132
5 | 18:15.08 | 5:53.15 | 82133 | 108622
6 | 24:08.23 | 5:16.48 | 108623 | 132370
7 | 29:24.71 | 4:15.41 | 132371 | 151536
8 | 33:40.37 | 4:24.09 | 151537 | 171345
9 | 38:04.46 | 4:44.23 | 171346 | 192668
10 | 42:48.69 | 1:53.19 | 192669 | 201162
11 | 44:42.13 | 4:46.53 | 201163 | 222665
12 | 49:28.66 | 7:36.58 | 222666 | 256923
Range status and errors
Selected range
Filename D:\ilko\Secret Sphere - Scent of Human Desire (Japan).wav
Peak level 97.7 %
Extraction speed 4.2 X
Range quality 100.0 %
Test CRC 07A740C9
Copy CRC 07A740C9
Copy OK
No errors occurred
AccurateRip summary
Track 1 accurately ripped (confidence 3) [702B662A] (AR v2)
Track 2 accurately ripped (confidence 3) [304289CA] (AR v2)
Track 3 accurately ripped (confidence 3) [8CD3C9DC] (AR v2)
Track 4 accurately ripped (confidence 3) [46ED738F] (AR v2)
Track 5 accurately ripped (confidence 3) [DD544197] (AR v2)
Track 6 accurately ripped (confidence 3) [1FF783B6] (AR v2)
Track 7 accurately ripped (confidence 3) [1AEBF97E] (AR v2)
Track 8 accurately ripped (confidence 3) [57BAB944] (AR v2)
Track 9 accurately ripped (confidence 3) [3F9EE362] (AR v2)
Track 10 accurately ripped (confidence 3) [6B72D5B8] (AR v2)
Track 11 accurately ripped (confidence 3) [D17A8C57] (AR v2)
Track 12 accurately ripped (confidence 3) [BE51179D] (AR v2)
All tracks accurately ripped
End of status report
---- CUETools DB Plugin V2.1.6
[CTDB TOCID: 52_nZUK0Xyj.ym5S_04pBxDApUo-] found
Submit result: 52_nZUK0Xyj.ym5S_04pBxDApUo- has been confirmed
Track | CTDB Status
1 | (2/3) Accurately ripped
2 | (2/3) Accurately ripped
3 | (2/3) Accurately ripped
4 | (2/3) Accurately ripped
5 | (2/3) Accurately ripped
6 | (2/3) Accurately ripped
7 | (2/3) Accurately ripped
8 | (2/3) Accurately ripped
9 | (2/3) Accurately ripped
10 | (2/3) Accurately ripped
11 | (2/3) Accurately ripped
12 | (2/3) Accurately ripped
==== Log checksum 1A1C957B2B6867C4D544610664BE5FE11A5A0A08D060A2CE9A8D73960C7263D6 ====
-

2005 - [CD] Heart & Anger (Japanese Edition) (Avalon/Marquee Inc. MICP-10503) [01:11:31]

01. Endless
02. Where the Sea Ends
03. First Snake
04. Loud & Raw
05. Dance with the Devil
06. Set Me Free
07. I Won't Say a Word
08. Lights On
09. Leonardo da Vinci
10. You Still Remain
11. Bad Blood
12. No Reason Why
13. Faster Than the Storm
14. Where the Sea Ends (Acoustic Live Jam) (Bonus Track)
Roberto "Ramon" Messina - Vocals
Aldo Lonobile - Guitars
Daniel Flores - Drums
Paolo "Paco" Gianotti - Guitars
Andrea Buratto - Bass
Antonio Agate - Keyboards

Лог создания рипа

Exact Audio Copy V1.3 from 2. September 2016
EAC extraction logfile from 3. April 2017, 16:31
Secret Sphere / Heart & Anger (Japan)
Used drive : MATSHITADVD-RAM UJ8G6 Adapter: 1 ID: 0
Read mode : Secure
Utilize accurate stream : Yes
Defeat audio cache : Yes
Make use of C2 pointers : No
Read offset correction : 103
Overread into Lead-In and Lead-Out : No
Fill up missing offset samples with silence : Yes
Delete leading and trailing silent blocks : No
Null samples used in CRC calculations : Yes
Used interface : Native Win32 interface for Win NT & 2000
Used output format : User Defined Encoder
Selected bitrate : 1024 kBit/s
Quality : High
Add ID3 tag : No
Command line compressor : C:\Program Files (x86)\Exact Audio Copy\FLAC\FLAC.EXE
Additional command line options : -V -8 -T "Date=%year%" -T"Genre=%genre%" -T"COMMENT=Ripped by Ilijan - ilko" -8 -V %source%
TOC of the extracted CD
Track | Start | Length | Start sector | End sector
---------------------------------------------------------
1 | 0:00.00 | 1:53.33 | 0 | 8507
2 | 1:53.33 | 5:03.14 | 8508 | 31246
3 | 6:56.47 | 6:28.30 | 31247 | 60376
4 | 13:25.02 | 4:57.03 | 60377 | 82654
5 | 18:22.05 | 5:22.03 | 82655 | 106807
6 | 23:44.08 | 5:17.04 | 106808 | 130586
7 | 29:01.12 | 5:02.42 | 130587 | 153278
8 | 34:03.54 | 5:36.24 | 153279 | 178502
9 | 39:40.03 | 5:22.01 | 178503 | 202653
10 | 45:02.04 | 5:03.64 | 202654 | 225442
11 | 50:05.68 | 4:05.61 | 225443 | 243878
12 | 54:11.54 | 6:35.06 | 243879 | 273509
13 | 60:46.60 | 6:49.62 | 273510 | 304246
14 | 67:36.47 | 3:55.15 | 304247 | 321886
Range status and errors
Selected range
Filename D:\ilko\Secret Sphere - Heart & Anger (Japan).wav
Peak level 98.9 %
Extraction speed 2.7 X
Range quality 100.0 %
Test CRC DBB9914D
Copy CRC DBB9914D
Copy OK
No errors occurred
AccurateRip summary
Track 1 cannot be verified as accurate (confidence 2) [919EDB00], AccurateRip returned [E89D31E3] (AR v2)
Track 2 cannot be verified as accurate (confidence 2) [33FF8FD7], AccurateRip returned [2FAEA368] (AR v2)
Track 3 cannot be verified as accurate (confidence 2) [5BFA1430], AccurateRip returned [13E36348] (AR v2)
Track 4 cannot be verified as accurate (confidence 2) [4D6E2E8D], AccurateRip returned [7D82E977] (AR v2)
Track 5 cannot be verified as accurate (confidence 2) [B4B9BAD4], AccurateRip returned [0F5B3032] (AR v2)
Track 6 cannot be verified as accurate (confidence 2) [2C716846], AccurateRip returned [4BEB2AE8] (AR v2)
Track 7 cannot be verified as accurate (confidence 2) [95AA7295], AccurateRip returned [BE92CA83] (AR v2)
Track 8 cannot be verified as accurate (confidence 2) [6FB4618A], AccurateRip returned [1BD5BB61] (AR v2)
Track 9 cannot be verified as accurate (confidence 2) [4E3780F4], AccurateRip returned [D18DC49E] (AR v2)
Track 10 cannot be verified as accurate (confidence 2) [AD0691FF], AccurateRip returned [4822F708] (AR v2)
Track 11 cannot be verified as accurate (confidence 2) [636E394B], AccurateRip returned [C8B69BB1] (AR v2)
Track 12 cannot be verified as accurate (confidence 2) [C8B7B35F], AccurateRip returned [AB9F60C9] (AR v2)
Track 13 cannot be verified as accurate (confidence 2) [6ADA0EC3], AccurateRip returned [09CDC30A] (AR v2)
Track 14 cannot be verified as accurate (confidence 2) [96B83AD0], AccurateRip returned [B7F4A789] (AR v2)
No tracks could be verified as accurate
You may have a different pressing from the one(s) in the database
End of status report
---- CUETools DB Plugin V2.1.6
[CTDB TOCID: LV6vTjpaenlivMZxHXlP4IMD57U-] found
Submit result: LV6vTjpaenlivMZxHXlP4IMD57U- has been confirmed
Track | CTDB Status
1 | (5/6) Accurately ripped
2 | (5/6) Accurately ripped
3 | (5/6) Accurately ripped
4 | (5/6) Accurately ripped
5 | (5/6) Accurately ripped
6 | (5/6) Accurately ripped
7 | (5/6) Accurately ripped
8 | (5/6) Accurately ripped
9 | (5/6) Accurately ripped
10 | (4/6) Accurately ripped
11 | (5/6) Accurately ripped
12 | (5/6) Accurately ripped
13 | (4/6) Accurately ripped
14 | (5/6) Accurately ripped
==== Log checksum 2AC193ECF1B69F8F6CBFABC2DFCE54B66504B34B6567F8BC7EADD047FCC5BEE8 ====
-

2008 - [CD] Sweet Blood Theory (Japanese Edition) (Avalon/Marquee Inc. MICP-10735) [00:55:29]

01. Evil or Divine
02. Stranger in Black
03. From a Dream to a Nightmare
04. Bring On
05. The Shadows of the Room of Pleasure
06. Welcome to the Circus
07. The Butterfly Dance
08. Sweet Blood Theory
09. Feed My Fire
10. All These Words
11. Vampire's Kiss
12. The Day at the End of the World (Bonus Track)
Roberto "Ramon" Messina - Vocals
Aldo Lonobile - Guitars
Federico Pennazzato - Drums
Paolo "Paco" Gianotti - Guitars
Andrea Buratto - Bass
Antonio Agate - Keyboards

Лог создания рипа

Exact Audio Copy V1.3 from 2. September 2016
EAC extraction logfile from 3. April 2017, 14:36
Secret Sphere / Sweet Blood Theory (Japan)
Used drive : ATAPI iHAS122 W Adapter: 2 ID: 0
Read mode : Secure
Utilize accurate stream : Yes
Defeat audio cache : Yes
Make use of C2 pointers : No
Read offset correction : 48
Overread into Lead-In and Lead-Out : No
Fill up missing offset samples with silence : Yes
Delete leading and trailing silent blocks : No
Null samples used in CRC calculations : Yes
Used interface : Installed external ASPI interface
Used output format : User Defined Encoder
Selected bitrate : 1024 kBit/s
Quality : High
Add ID3 tag : No
Command line compressor : C:\Program Files\FLAC\flac.exe
Additional command line options : -V -8 -T "Date=%year%" -T "Genre=%genre%" -T"COMMENT=Ripped by Ilijan - ilko" -8 -V %source%
TOC of the extracted CD
Track | Start | Length | Start sector | End sector
---------------------------------------------------------
1 | 0:00.00 | 0:55.02 | 0 | 4126
2 | 0:55.02 | 5:15.07 | 4127 | 27758
3 | 6:10.09 | 6:29.74 | 27759 | 57007
4 | 12:40.08 | 5:31.44 | 57008 | 81876
5 | 18:11.52 | 5:08.66 | 81877 | 105042
6 | 23:20.43 | 5:02.16 | 105043 | 127708
7 | 28:22.59 | 4:41.21 | 127709 | 148804
8 | 33:04.05 | 5:19.32 | 148805 | 172761
9 | 38:23.37 | 3:54.30 | 172762 | 190341
10 | 42:17.67 | 4:34.26 | 190342 | 210917
11 | 46:52.18 | 4:37.30 | 210918 | 231722
12 | 51:29.48 | 4:00.18 | 231723 | 249740
Range status and errors
Selected range
Filename D:\ilko\Secret Sphere - Sweet Blood Theory (Japan).wav
Peak level 98.8 %
Extraction speed 3.9 X
Range quality 100.0 %
Test CRC D7BE867E
Copy CRC D7BE867E
Copy OK
No errors occurred
AccurateRip summary
Track 1 accurately ripped (confidence 4) [8AEE2605] (AR v2)
Track 2 accurately ripped (confidence 4) [2927B275] (AR v2)
Track 3 accurately ripped (confidence 4) [C32CB635] (AR v2)
Track 4 accurately ripped (confidence 4) [EDF353BB] (AR v2)
Track 5 accurately ripped (confidence 4) [8FCAB35D] (AR v2)
Track 6 accurately ripped (confidence 4) [C0819952] (AR v2)
Track 7 accurately ripped (confidence 4) [79D608C8] (AR v2)
Track 8 accurately ripped (confidence 4) [42080A23] (AR v2)
Track 9 accurately ripped (confidence 4) [4118B13E] (AR v2)
Track 10 accurately ripped (confidence 4) [589BD296] (AR v2)
Track 11 accurately ripped (confidence 4) [5D0AE358] (AR v2)
Track 12 accurately ripped (confidence 3) [1DB30F71] (AR v2)
All tracks accurately ripped
End of status report
---- CUETools DB Plugin V2.1.6
[CTDB TOCID: b59AlnDpalH.EVYSpYfnBjPYcaw-] found
Submit result: b59AlnDpalH.EVYSpYfnBjPYcaw- has been confirmed
Track | CTDB Status
1 | (4/4) Accurately ripped
2 | (4/4) Accurately ripped
3 | (4/4) Accurately ripped
4 | (4/4) Accurately ripped
5 | (4/4) Accurately ripped
6 | (4/4) Accurately ripped
7 | (4/4) Accurately ripped
8 | (4/4) Accurately ripped
9 | (4/4) Accurately ripped
10 | (4/4) Accurately ripped
11 | (4/4) Accurately ripped
12 | (3/4) Accurately ripped, or (1/4) differs in 151 samples @04:00:06
==== Log checksum 15230890798182F0882482BAFA947077D74337B924E2FEA3528087C58DCE7488 ====
-

2010 - [CD] Archetype (Original Recording) (Scarlet Records SC 197-0) [00:51:29]

01. Pattern of Thought (Intro)
02. Line on Fire
03. Death from Above
04. The Scars That You Can't See
05. More Than Myself
06. Future
07. Mr. Sin
08. Into the Void
09. All in a Moment
10. Archetype
11. Vertigo (Bonus Track)
12. The Look (Roxette Cover) (Bonus Track)
Roberto "Ramon" Messina - Vocals
Aldo Lonobile - Guitars
Federico Pennazzato - Drums
Marco Pastorino - Guitars
Andrea Buratto - Bass
Gabriele Ciaccia - Keyboards

Лог создания рипа

Exact Audio Copy V1.3 from 2. September 2016
EAC extraction logfile from 3. April 2017, 15:07
Secret Sphere / Archetype
Used drive : ATAPI iHAS122 W Adapter: 2 ID: 0
Read mode : Secure
Utilize accurate stream : Yes
Defeat audio cache : Yes
Make use of C2 pointers : No
Read offset correction : 48
Overread into Lead-In and Lead-Out : No
Fill up missing offset samples with silence : Yes
Delete leading and trailing silent blocks : No
Null samples used in CRC calculations : Yes
Used interface : Installed external ASPI interface
Used output format : User Defined Encoder
Selected bitrate : 1024 kBit/s
Quality : High
Add ID3 tag : No
Command line compressor : C:\Program Files\FLAC\flac.exe
Additional command line options : -V -8 -T "Date=%year%" -T "Genre=%genre%" -T"COMMENT=Ripped by Ilijan - ilko" -8 -V %source%
TOC of the extracted CD
Track | Start | Length | Start sector | End sector
---------------------------------------------------------
1 | 0:00.00 | 1:50.27 | 0 | 8276
2 | 1:50.27 | 3:43.71 | 8277 | 25072
3 | 5:34.23 | 5:16.73 | 25073 | 48845
4 | 10:51.21 | 5:08.17 | 48846 | 71962
5 | 15:59.38 | 4:32.69 | 71963 | 92431
6 | 20:32.32 | 5:24.36 | 92432 | 116767
7 | 25:56.68 | 4:06.66 | 116768 | 135283
8 | 30:03.59 | 4:25.22 | 135284 | 155180
9 | 34:29.06 | 3:46.48 | 155181 | 172178
10 | 38:15.54 | 5:07.39 | 172179 | 195242
11 | 43:23.18 | 4:03.33 | 195243 | 213500
12 | 47:26.51 | 4:03.00 | 213501 | 231725
Range status and errors
Selected range
Filename D:\ilko\Secret Sphere - Archetype.wav
Peak level 100.0 %
Extraction speed 4.0 X
Range quality 100.0 %
Test CRC EE176C6B
Copy CRC EE176C6B
Copy OK
No errors occurred
AccurateRip summary
Track 1 accurately ripped (confidence 8) [BC939956] (AR v2)
Track 2 accurately ripped (confidence 8) [4C522261] (AR v2)
Track 3 accurately ripped (confidence 8) [D51FF4EF] (AR v2)
Track 4 accurately ripped (confidence 8) [0E9FF717] (AR v2)
Track 5 accurately ripped (confidence 8) [27A262C7] (AR v2)
Track 6 accurately ripped (confidence 8) [618CE24C] (AR v2)
Track 7 accurately ripped (confidence 8) [AAC1A520] (AR v2)
Track 8 accurately ripped (confidence 8) [AFB25972] (AR v2)
Track 9 accurately ripped (confidence 8) [DF5818FA] (AR v2)
Track 10 accurately ripped (confidence 8) [B95662DA] (AR v2)
Track 11 accurately ripped (confidence 8) [013C16F4] (AR v2)
Track 12 accurately ripped (confidence 8) [2AC30AE4] (AR v2)
All tracks accurately ripped
End of status report
---- CUETools DB Plugin V2.1.6
[CTDB TOCID: QRudzAWksEKbxzBQMV2hpNwjWRs-] found
Submit result: QRudzAWksEKbxzBQMV2hpNwjWRs- has been confirmed
Track | CTDB Status
1 | (5/5) Accurately ripped
2 | (5/5) Accurately ripped
3 | (5/5) Accurately ripped
4 | (5/5) Accurately ripped
5 | (5/5) Accurately ripped
6 | (5/5) Accurately ripped
7 | (5/5) Accurately ripped
8 | (5/5) Accurately ripped
9 | (5/5) Accurately ripped
10 | (5/5) Accurately ripped
11 | (4/5) Accurately ripped, or (1/5) differs in 322 samples @00:11:17,00:11:22,00:11:34,00:11:46-00:11:55,00:12:00,00:12:10,00:12:16,00:12:25,00:12:35,00:12:43,00:12:53-00:12:56,00:12:73-00:13:00,00:13:08,00:13:13,00:13:28,00:13:41,00:13:58,00:13:72-00:14:14,00:14:34-00:14:36,00:14:44,00:14:51,00:14:61-00:14:64,00:15:02-00:15:10,00:15:17,00:15:32,00:15:38,00:15:65-00:15:70,00:16:05,00:16:12,00:16:19,00:16:27,00:16:37
12 | (5/5) Accurately ripped
==== Log checksum 29FCE77C0F3987788F7610EC304DDAF9C687C533BC7CC61F8365DCCDFD99BB9A ====
-

2012 - [CD] Portrait Of A Dying Heart (Original Recording) (Scarlet Records SC 229-2) [00:50:51]

01. Portrait of a Dying Heart
02. X
03. Wish & Steadiness
04. Union
05. The Fall
06. Healing
07. Lie to Me
08. Secrets Fear
09. The Rising of Love
10. Eternity
Michele Luppi - Vocals
Aldo Lonobile - Guitars
Federico Pennazzato - Drums
Marco Pastorino - Guitars
Andrea Buratto - Bass
Gabriele Ciaccia - Keyboards

Лог создания рипа

Exact Audio Copy V1.3 from 2. September 2016
EAC extraction logfile from 3. April 2017, 15:40
Secret Sphere / Portrait of a Dying Heart
Used drive : ATAPI iHAS122 W Adapter: 2 ID: 0
Read mode : Secure
Utilize accurate stream : Yes
Defeat audio cache : Yes
Make use of C2 pointers : No
Read offset correction : 48
Overread into Lead-In and Lead-Out : No
Fill up missing offset samples with silence : Yes
Delete leading and trailing silent blocks : No
Null samples used in CRC calculations : Yes
Used interface : Installed external ASPI interface
Used output format : User Defined Encoder
Selected bitrate : 1024 kBit/s
Quality : High
Add ID3 tag : No
Command line compressor : C:\Program Files\FLAC\flac.exe
Additional command line options : -V -8 -T "Date=%year%" -T "Genre=%genre%" -T"COMMENT=Ripped by Ilijan - ilko" -8 -V %source%
TOC of the extracted CD
Track | Start | Length | Start sector | End sector
---------------------------------------------------------
1 | 0:00.00 | 6:00.24 | 0 | 27023
2 | 6:00.24 | 5:12.46 | 27024 | 50469
3 | 11:12.70 | 5:37.25 | 50470 | 75769
4 | 16:50.20 | 4:12.33 | 75770 | 94702
5 | 21:02.53 | 5:09.40 | 94703 | 117917
6 | 26:12.18 | 4:18.00 | 117918 | 137267
7 | 30:30.18 | 3:50.30 | 137268 | 154547
8 | 34:20.48 | 5:57.07 | 154548 | 181329
9 | 40:17.55 | 4:28.55 | 181330 | 201484
10 | 44:46.35 | 6:04.53 | 201485 | 228837
Range status and errors
Selected range
Filename D:\ilko\Secret Sphere - Portrait of a Dying Heart.wav
Peak level 96.2 %
Extraction speed 3.8 X
Range quality 100.0 %
Test CRC 537895BC
Copy CRC 537895BC
Copy OK
No errors occurred
AccurateRip summary
Track 1 accurately ripped (confidence 9) [F6BB528A] (AR v2)
Track 2 accurately ripped (confidence 9) [F4415E24] (AR v2)
Track 3 accurately ripped (confidence 9) [D304D89F] (AR v2)
Track 4 accurately ripped (confidence 9) [2E7858DF] (AR v2)
Track 5 accurately ripped (confidence 9) [363AB5B4] (AR v2)
Track 6 accurately ripped (confidence 9) [2305B96F] (AR v2)
Track 7 accurately ripped (confidence 9) [D4B17C6B] (AR v2)
Track 8 accurately ripped (confidence 9) [420C4DB1] (AR v2)
Track 9 accurately ripped (confidence 9) [C697E1F2] (AR v2)
Track 10 accurately ripped (confidence 9) [C23D92BB] (AR v2)
All tracks accurately ripped
End of status report
---- CUETools DB Plugin V2.1.6
[CTDB TOCID: 8PhrP6xW1frpiLl7GLpk2bjrezo-] found
Submit result: 8PhrP6xW1frpiLl7GLpk2bjrezo- has been confirmed
Track | CTDB Status
1 | (7/7) Accurately ripped
2 | (7/7) Accurately ripped
3 | (7/7) Accurately ripped
4 | (7/7) Accurately ripped
5 | (7/7) Accurately ripped
6 | (7/7) Accurately ripped
7 | (7/7) Accurately ripped
8 | (7/7) Accurately ripped
9 | (7/7) Accurately ripped
10 | (7/7) Accurately ripped
==== Log checksum 23D6919097727E86A7A6790FF75BAB5D4FAC052B785BBC159B0EFF29072A38BA ====
-

2015 - [CD] A Time Never Come - 2015 (Japanese Edition) (Avalon/Marquee Inc. MICP-11212) [01:05:53]

01. Gate of Wisdom
02. Legend
03. Under the Flag of Mary Read
04. The Brave
05. Emotions
06. Oblivion
07. Lady of Silence
08. The Mystery of Love
09. Paganini's Nightmare
10. Hamelin
11. Ascension
12. Dr. Faustus
13. Lie to Me (Live) (Bonus Track)
14. Wish and Steadiness (Live) (Bonus Track)
Michele Luppi - Vocals
Aldo Lonobile - Guitars
Marco Lazzarini - Drums
Marco Pastorino - Guitars
Andrea Buratto - Bass
Gabriele Ciaccia - Keyboards

Лог создания рипа

Exact Audio Copy V1.3 from 2. September 2016
EAC extraction logfile from 3. April 2017, 16:15
Secret Sphere / A Time Never Come 2015 (Japan)
Used drive : ATAPI iHAS122 W Adapter: 2 ID: 0
Read mode : Secure
Utilize accurate stream : Yes
Defeat audio cache : Yes
Make use of C2 pointers : No
Read offset correction : 48
Overread into Lead-In and Lead-Out : No
Fill up missing offset samples with silence : Yes
Delete leading and trailing silent blocks : No
Null samples used in CRC calculations : Yes
Used interface : Installed external ASPI interface
Used output format : User Defined Encoder
Selected bitrate : 1024 kBit/s
Quality : High
Add ID3 tag : No
Command line compressor : C:\Program Files\FLAC\flac.exe
Additional command line options : -V -8 -T "Date=%year%" -T "Genre=%genre%" -T"COMMENT=Ripped by Ilijan - ilko" -8 -V %source%
TOC of the extracted CD
Track | Start | Length | Start sector | End sector
---------------------------------------------------------
1 | 0:00.00 | 0:59.06 | 0 | 4430
2 | 0:59.06 | 6:15.15 | 4431 | 32570
3 | 7:14.21 | 7:22.01 | 32571 | 65721
4 | 14:36.22 | 7:12.67 | 65722 | 98188
5 | 21:49.14 | 2:35.30 | 98189 | 109843
6 | 24:24.44 | 4:34.23 | 109844 | 130416
7 | 28:58.67 | 5:26.45 | 130417 | 154911
8 | 34:25.37 | 6:55.14 | 154912 | 186050
9 | 41:20.51 | 1:10.58 | 186051 | 191358
10 | 42:31.34 | 4:42.06 | 191359 | 212514
11 | 47:13.40 | 1:07.16 | 212515 | 217555
12 | 48:20.56 | 8:25.35 | 217556 | 255465
13 | 56:46.16 | 4:12.10 | 255466 | 274375
14 | 60:58.26 | 4:55.03 | 274376 | 296503
Range status and errors
Selected range
Filename D:\ilko\Secret Sphere - A Time Never Come 2015 (Japan).wav
Peak level 99.8 %
Extraction speed 4.3 X
Range quality 100.0 %
Test CRC 364ADAFD
Copy CRC 364ADAFD
Copy OK
No errors occurred
AccurateRip summary
Track 1 cannot be verified as accurate (confidence 2) [39868FA5], AccurateRip returned [C5E7200D] (AR v2)
Track 2 cannot be verified as accurate (confidence 2) [319751E6], AccurateRip returned [FD832D1A] (AR v2)
Track 3 cannot be verified as accurate (confidence 2) [A525F5C4], AccurateRip returned [E2FC8C5E] (AR v2)
Track 4 cannot be verified as accurate (confidence 2) [3ADC096E], AccurateRip returned [0AFFB0A8] (AR v2)
Track 5 cannot be verified as accurate (confidence 2) [CB112769], AccurateRip returned [6B0C4678] (AR v2)
Track 6 cannot be verified as accurate (confidence 2) [9DE90B5D], AccurateRip returned [5C1781B3] (AR v2)
Track 7 cannot be verified as accurate (confidence 2) [7A9BC8A7], AccurateRip returned [2973153B] (AR v2)
Track 8 cannot be verified as accurate (confidence 2) [950B68E3], AccurateRip returned [F4E1B128] (AR v2)
Track 9 cannot be verified as accurate (confidence 2) [43F84E5E], AccurateRip returned [14CA23BF] (AR v2)
Track 10 cannot be verified as accurate (confidence 2) [BFE779AB], AccurateRip returned [195D6CA9] (AR v2)
Track 11 cannot be verified as accurate (confidence 2) [08F60B1F], AccurateRip returned [D46B23FE] (AR v2)
Track 12 cannot be verified as accurate (confidence 2) [41511D09], AccurateRip returned [106C481E] (AR v2)
Track 13 cannot be verified as accurate (confidence 2) [44A0CCC1], AccurateRip returned [D9007136] (AR v2)
Track 14 cannot be verified as accurate (confidence 2) [652D5AAC], AccurateRip returned [477C0348] (AR v2)
No tracks could be verified as accurate
You may have a different pressing from the one(s) in the database
End of status report
---- CUETools DB Plugin V2.1.6
[CTDB TOCID: o7pjdzfVufNSV4KzqZkX5pSpscE-] found
Submit result: already submitted
Track | CTDB Status
1 | (9/9) Accurately ripped
2 | (9/9) Accurately ripped
3 | (9/9) Accurately ripped
4 | (9/9) Accurately ripped
5 | (9/9) Accurately ripped
6 | (9/9) Accurately ripped
7 | (9/9) Accurately ripped
8 | (9/9) Accurately ripped
9 | (9/9) Accurately ripped
10 | (9/9) Accurately ripped
11 | (9/9) Accurately ripped
12 | (9/9) Accurately ripped
13 | (9/9) Accurately ripped
14 | (9/9) Accurately ripped
==== Log checksum 97A03039B5135C8D9D0C45631CC0A8EEED3C51444A79964060A17D743DB1746C ====
-

2016 - [2CD] One Night In Tokyo (Japanese Edition) (King Record Co., Ltd. KIZC-364~6) [01:30:14]

CD1:
01. Intro: A Journey Through Time
02. X.
03. Healing
04. Union
05. The Fall
06. Lie to Me
07. Wish & Steadiness
08. Legend
Michele Luppi - Vocals
Aldo Lonobile - Guitars
Marco Lazzarini - Drums
Marco Pastorino - Guitars
Andrea Buratto - Bass
Gabriele Ciaccia - Keyboards

Лог создания рипа

Exact Audio Copy V1.3 from 2. September 2016
EAC extraction logfile from 21. October 2016, 11:49
Secret Sphere / One Night In Tokyo (CD1)
Used drive : ATAPI iHAS122 W Adapter: 2 ID: 0
Read mode : Secure
Utilize accurate stream : Yes
Defeat audio cache : Yes
Make use of C2 pointers : No
Read offset correction : 48
Overread into Lead-In and Lead-Out : No
Fill up missing offset samples with silence : Yes
Delete leading and trailing silent blocks : No
Null samples used in CRC calculations : Yes
Used interface : Installed external ASPI interface
Used output format : User Defined Encoder
Selected bitrate : 1024 kBit/s
Quality : High
Add ID3 tag : No
Command line compressor : C:\Program Files\FLAC\flac.exe
Additional command line options : -V -8 -T "Date=%year%" -T "Genre=%genre%" -T"COMMENT=Ripped by Ilijan" -8 -V %source%
TOC of the extracted CD
Track | Start | Length | Start sector | End sector
---------------------------------------------------------
1 | 0:00.00 | 3:32.64 | 0 | 15963
2 | 3:32.64 | 5:09.67 | 15964 | 39205
3 | 8:42.56 | 4:41.38 | 39206 | 60318
4 | 13:24.19 | 4:24.20 | 60319 | 80138
5 | 17:48.39 | 5:39.47 | 80139 | 105610
6 | 23:28.11 | 4:02.71 | 105611 | 123831
7 | 27:31.07 | 5:57.41 | 123832 | 150647
8 | 33:28.48 | 6:29.12 | 150648 | 179834
Range status and errors
Selected range
Filename D:\ilко\Secret Sphere - One Night In Tokyo (CD1).wav
Peak level 97.5 %
Extraction speed 3.6 X
Range quality 100.0 %
Test CRC 472F6147
Copy CRC 472F6147
Copy OK
No errors occurred
AccurateRip summary
Track 1 not present in database
Track 2 not present in database
Track 3 not present in database
Track 4 not present in database
Track 5 not present in database
Track 6 not present in database
Track 7 not present in database
Track 8 not present in database
None of the tracks are present in the AccurateRip database
End of status report
---- CUETools DB Plugin V2.1.6
[CTDB TOCID: mkVXsuDHCynPh4QbVoR3IW3lLiU-] found
Submit result: mkVXsuDHCynPh4QbVoR3IW3lLiU- has been confirmed
Track | CTDB Status
1 | (1/1) Accurately ripped
2 | (1/1) Accurately ripped
3 | (1/1) Accurately ripped
4 | (1/1) Accurately ripped
5 | (1/1) Accurately ripped
6 | (1/1) Accurately ripped
7 | (1/1) Accurately ripped
8 | (1/1) Accurately ripped
==== Log checksum 6706D9D91C4AA3CF1C1E489408684FBE62D6A4145859AA2B42644CDEF318E5DA ====
CD2:
01. Under the Flag of Mary Read
02. The Scars That You Can't See
03. Eternity
04. Mr. Sin
05. Leonardo da Vinci
06. Lady of Silence
07. Dance with the Devil
08. Detroit Rock City (Bonus Track)
09. Lie to Me (feat. Anette Olzon) (Bonus Track)

Лог создания рипа

Exact Audio Copy V1.3 from 2. September 2016
EAC extraction logfile from 21. October 2016, 12:22
Secret Sphere / One Night In Tokyo (CD2)
Used drive : ATAPI iHAS122 W Adapter: 2 ID: 0
Read mode : Secure
Utilize accurate stream : Yes
Defeat audio cache : Yes
Make use of C2 pointers : No
Read offset correction : 48
Overread into Lead-In and Lead-Out : No
Fill up missing offset samples with silence : Yes
Delete leading and trailing silent blocks : No
Null samples used in CRC calculations : Yes
Used interface : Installed external ASPI interface
Used output format : User Defined Encoder
Selected bitrate : 1024 kBit/s
Quality : High
Add ID3 tag : No
Command line compressor : C:\Program Files\FLAC\flac.exe
Additional command line options : -V -8 -T "Date=%year%" -T "Genre=%genre%" -T"COMMENT=Ripped by Ilijan" -8 -V %source%
TOC of the extracted CD
Track | Start | Length | Start sector | End sector
---------------------------------------------------------
1 | 0:00.00 | 6:27.31 | 0 | 29055
2 | 6:27.31 | 5:30.40 | 29056 | 53845
3 | 11:57.71 | 6:20.57 | 53846 | 82402
4 | 18:18.53 | 4:27.20 | 82403 | 102447
5 | 22:45.73 | 6:02.50 | 102448 | 129647
6 | 28:48.48 | 8:13.37 | 129648 | 166659
7 | 37:02.10 | 5:39.41 | 166660 | 192125
8 | 42:41.51 | 4:24.13 | 192126 | 211938
9 | 47:05.64 | 3:52.04 | 211939 | 229342
Range status and errors
Selected range
Filename D:\ilко\Secret Sphere - One Night In Tokyo (CD2).wav
Peak level 99.9 %
Extraction speed 3.7 X
Range quality 100.0 %
Test CRC 951EC9B5
Copy CRC 951EC9B5
Copy OK
No errors occurred
AccurateRip summary
Track 1 not present in database
Track 2 not present in database
Track 3 not present in database
Track 4 not present in database
Track 5 not present in database
Track 6 not present in database
Track 7 not present in database
Track 8 not present in database
Track 9 not present in database
None of the tracks are present in the AccurateRip database
End of status report
---- CUETools DB Plugin V2.1.6
[CTDB TOCID: HqLwlSLPkE4zmaR4B.kKi1bwYYo-] disk not present in database
Submit result: HqLwlSLPkE4zmaR4B.kKi1bwYYo- has been uploaded
==== Log checksum C32AE5C4FBB455DB7860A00B35B1A8A2FAAB00D4AEDEC442072F8C024CC2192A ====
DVD - One Night In Tokyo-

To download the file disable ad blocking, and reload the page.

disable adblock How to disable ad blocking?

Download by magnet link 4.5 GB Download Torrent

Login using:

Similar topics



   
Current time is: 16-Oct 07:49 :: All times are UTC ± 0