Running Wild / Collection 11CD

Жанр: Heavy / Speed Metal
Носитель: CD
Страна-производитель диска (релиза): Russia
Год издания: 2002
Издатель (лейбл): Agat
Страна исполнителя (группы): Germany
Аудиокодек: FLAC (*.flac)
Тип рипа: image+.cue
Битрейт аудио: lossless
Источник (релизер): deminbek, Sergey_155
Наличие сканов в содержимом раздачи: да (84, 87, 94 только CD scans)
Треклист:

1984 - Gates To Purgatory - Branded And Exiled

01. Victim Of States Power (3:38)
02. Black Demon (4:26)
03. Preacher (4:24)
04. Soldiers Of Hell (3:27)
05. Diabolic Force (5:02)
06. Adrian SOS (2:52)
07. Genghis Khan (4:11)
08. Prisoner Of Our Time (5:24)
09. Walpurgis Night [Bonus Track] (4:37)
10. Satan [Bonus Track] (4:13)
11. Branded & Exiled (3:54)
12. Gods Of Iron (4:03)
13. Realm Of Shades (4:31)
14. Mordor (4:50)
15. Fight The Oppression (4:56)
16. Evil Spirit (3:22)
17. Marching To Die (4:38)
18. Chains And Leather (5:42)

Лог создания рипа

Exact Audio Copy V1.0 beta 3 from 29. August 2011
EAC extraction logfile from 24. April 2012, 17:23
Running Wild / Gates To Purgatory + Branded And Exiled
Used drive : TSSTcorpCD/DVDW TS-H653L Adapter: 1 ID: 0
Read mode : Secure
Utilize accurate stream : Yes
Defeat audio cache : Yes
Make use of C2 pointers : No
Read offset correction : 6
Overread into Lead-In and Lead-Out : No
Fill up missing offset samples with silence : Yes
Delete leading and trailing silent blocks : No
Null samples used in CRC calculations : Yes
Used interface : Installed external ASPI interface
Used output format : User Defined Encoder
Selected bitrate : 1024 kBit/s
Quality : High
Add ID3 tag : No
Command line compressor : C:\Program Files\Exact Audio Copy\FLAC\FLAC.EXE
Additional command line options : -V -8 -T "Date=%year%" -T "Genre=%genre%" %source%
TOC of the extracted CD
Track | Start | Length | Start sector | End sector
---------------------------------------------------------
1 | 0:00.00 | 3:38.01 | 0 | 16350
2 | 3:38.01 | 4:26.37 | 16351 | 36337
3 | 8:04.38 | 4:24.01 | 36338 | 56138
4 | 12:28.39 | 3:27.01 | 56139 | 71664
5 | 15:55.40 | 5:02.00 | 71665 | 94314
6 | 20:57.40 | 2:51.38 | 94315 | 107177
7 | 23:49.03 | 4:11.00 | 107178 | 126002
8 | 28:00.03 | 5:24.00 | 126003 | 150302
9 | 33:24.03 | 4:36.49 | 150303 | 171051
10 | 38:00.52 | 4:12.39 | 171052 | 189990
11 | 42:13.16 | 3:53.61 | 189991 | 207526
12 | 46:07.02 | 4:02.66 | 207527 | 225742
13 | 50:09.68 | 4:31.01 | 225743 | 246068
14 | 54:40.69 | 4:50.00 | 246069 | 267818
15 | 59:30.69 | 4:56.37 | 267819 | 290055
16 | 64:27.31 | 3:22.22 | 290056 | 305227
17 | 67:49.53 | 4:38.01 | 305228 | 326078
18 | 72:27.54 | 5:42.13 | 326079 | 351741
Range status and errors
Selected range
Filename E:\CD Rip by Deminbek\Running Wild - Gates To Purgatory + Branded And Exiled.wav
Peak level 98.5 %
Extraction speed 6.9 X
Range quality 100.0 %
Test CRC B3C0622A
Copy CRC B3C0622A
Copy OK
No errors occurred
AccurateRip summary
Track 1 not present in database
Track 2 not present in database
Track 3 not present in database
Track 4 not present in database
Track 5 not present in database
Track 6 not present in database
Track 7 not present in database
Track 8 not present in database
Track 9 not present in database
Track 10 not present in database
Track 11 not present in database
Track 12 not present in database
Track 13 not present in database
Track 14 not present in database
Track 15 not present in database
Track 16 not present in database
Track 17 not present in database
Track 18 not present in database
None of the tracks are present in the AccurateRip database
End of status report
==== Log checksum 66ADE512028CBB6E39615E20AD22D0A28BC26BA11F573BD41965C9D22011CAF0 ====

1987 - Under Jolly Roger - Ready For Boarding

01. Under Jolly Roger (4:45)
02. Beggar's Night (5:08)
03. Diamonds Of The Black Chest (3:09)
04. War In The Gutter (3:21)
05. Raise Your Fist (5:31)
06. Land Of Ice (4:58)
07. Raw Ride (4:36)
08. Merciless Game (3:54)
09. Hymn Of Long John Silver(2:37)
10. Under Jolly Roger (4:17)
11. Genghis Kahn (4:15)
12. Raise Your Fist (5:16)
13. Purgatory (5:35)
14. Mordor (4:24)
15. Diabolic Force (4:38)
16. Raw Ride (4:38)
17. Adrian (S.O.S.) (2:35)
18. Prisoner Of Our Time (5:42)

Лог создания рипа

Exact Audio Copy V1.0 beta 3 from 29. August 2011
EAC extraction logfile from 14. April 2012, 12:11
Running Wild / Under Jolly Roger + Ready For Boarding
Used drive : PIONEER DVD-RW DVR-112D Adapter: 1 ID: 0
Read mode : Secure
Utilize accurate stream : Yes
Defeat audio cache : Yes
Make use of C2 pointers : No
Read offset correction : 48
Overread into Lead-In and Lead-Out : No
Fill up missing offset samples with silence : Yes
Delete leading and trailing silent blocks : No
Null samples used in CRC calculations : Yes
Used interface : Installed external ASPI interface
Used output format : User Defined Encoder
Selected bitrate : 1024 kBit/s
Quality : High
Add ID3 tag : No
Command line compressor : C:\Program Files\Exact Audio Copy\FLAC\FLAC.EXE
Additional command line options : -V -8 -T "Date=%year%" -T "Genre=%genre%" %source%
TOC of the extracted CD
Track | Start | Length | Start sector | End sector
---------------------------------------------------------
1 | 0:00.00 | 4:44.42 | 0 | 21341
2 | 4:44.42 | 5:08.00 | 21342 | 44441
3 | 9:52.42 | 3:09.26 | 44442 | 58642
4 | 13:01.68 | 3:21.14 | 58643 | 73731
5 | 16:23.07 | 5:31.15 | 73732 | 98571
6 | 21:54.22 | 4:57.40 | 98572 | 120886
7 | 26:51.62 | 4:36.27 | 120887 | 141613
8 | 31:28.14 | 3:53.65 | 141614 | 159153
9 | 35:22.04 | 2:36.40 | 159154 | 170893
10 | 37:58.44 | 4:16.73 | 170894 | 190166
11 | 42:15.42 | 4:14.50 | 190167 | 209266
12 | 46:30.17 | 5:15.55 | 209267 | 232946
13 | 51:45.72 | 5:35.02 | 232947 | 258073
14 | 57:20.74 | 4:24.33 | 258074 | 277906
15 | 61:45.32 | 4:38.25 | 277907 | 298781
16 | 66:23.57 | 4:38.00 | 298782 | 319631
17 | 71:01.57 | 2:35.12 | 319632 | 331268
18 | 73:36.69 | 5:42.23 | 331269 | 356941
Range status and errors
Selected range
Filename C:\CDRip by Deminbek\Running Wild - Under Jolly Roger + Ready For Boarding.wav
Peak level 98.2 %
Extraction speed 8.0 X
Range quality 99.9 %
Test CRC 72FD9BE3
Copy CRC 72FD9BE3
Copy OK
No errors occurred
AccurateRip summary
Track 1 cannot be verified as accurate (confidence 1) [960FA8F2], AccurateRip returned [9E2879FD] (AR v2)
Track 2 cannot be verified as accurate (confidence 1) [E6E11A79], AccurateRip returned [4C86AC07] (AR v2)
Track 3 cannot be verified as accurate (confidence 1) [39D919B6], AccurateRip returned [787BE095] (AR v2)
Track 4 cannot be verified as accurate (confidence 1) [F9CB2FDE], AccurateRip returned [FE0BF781] (AR v2)
Track 5 cannot be verified as accurate (confidence 1) [DEB2FE95], AccurateRip returned [E11A1D29] (AR v2)
Track 6 cannot be verified as accurate (confidence 1) [EC5B64CF], AccurateRip returned [7819FA28] (AR v2)
Track 7 cannot be verified as accurate (confidence 1) [FE773D86], AccurateRip returned [184E060F] (AR v2)
Track 8 cannot be verified as accurate (confidence 1) [FE38642D], AccurateRip returned [1F9F86EC] (AR v2)
Track 9 cannot be verified as accurate (confidence 1) [FDB8715F], AccurateRip returned [C8D603F2] (AR v2)
Track 10 cannot be verified as accurate (confidence 1) [09293769], AccurateRip returned [96AE1B23] (AR v2)
Track 11 cannot be verified as accurate (confidence 1) [5DC59AAE], AccurateRip returned [8CB8189E] (AR v2)
Track 12 cannot be verified as accurate (confidence 1) [8366AF4A], AccurateRip returned [A90A7D24] (AR v2)
Track 13 cannot be verified as accurate (confidence 1) [96533BAB], AccurateRip returned [145FD660] (AR v2)
Track 14 cannot be verified as accurate (confidence 1) [78B25A3F], AccurateRip returned [C4FCDA4E] (AR v2)
Track 15 cannot be verified as accurate (confidence 1) [D3E989EC], AccurateRip returned [B48C68DF] (AR v2)
Track 16 cannot be verified as accurate (confidence 1) [5D1BF2ED], AccurateRip returned [9DE83B46] (AR v2)
Track 17 cannot be verified as accurate (confidence 1) [B400AE01], AccurateRip returned [83EE4F84] (AR v2)
Track 18 cannot be verified as accurate (confidence 1) [669ED5E5], AccurateRip returned [22A39527] (AR v2)
No tracks could be verified as accurate
You may have a different pressing from the one(s) in the database
End of status report
---- CUETools DB Plugin V2.1.3
[CTDB TOCID: GvEoLIYJbDVbKbvGXxGPjmHbhnA-] disk not present in database, Submit result:
GvEoLIYJbDVbKbvGXxGPjmHbhnA- has been uploaded
==== Log checksum 6CD704F55810F41985C95720DECE2C2DDE65FCABA9819E994610D2B2C56373AD ====

1988 - Port Royal - The First Years Of Piracy

01. Intro (0:50)
02. Port Royal (4:14)
03. Raging Fire (3:30)
04. Into The Arena (4:00)
05. Uaschitschun (4:53)
06. Final Gates (2:58)
07. Conquistadores (4:49)
08. Blown To Kingdom Come (3:18)
09. Warchild (3:03)
10. Mutiny (4:27)
11. Calico Jack (8:18)
12. Under Jolly Roger (4:07)
13. Branded And Exiled (3:52)
14. Soldiers of Hell (3:24)
15. Raise Your Fist (4:53)
16. Walpurgis Night (5:21)
17. Fight The Oppression (4:55)
18. Marching To Die (4:38)
19. Raw Ride (4:14)

Лог создания рипа

Exact Audio Copy V1.0 beta 3 from 29. August 2011
EAC extraction logfile from 10. April 2012, 0:10
Running Wild / Port Royal / The First Years Of Piracy
Used drive : HL-DT-STDVDRAM GSA-T50F Adapter: 0 ID: 2
Read mode : Secure
Utilize accurate stream : Yes
Defeat audio cache : Yes
Make use of C2 pointers : No
Read offset correction : 667
Overread into Lead-In and Lead-Out : No
Fill up missing offset samples with silence : Yes
Delete leading and trailing silent blocks : No
Null samples used in CRC calculations : Yes
Used interface : Installed external ASPI interface
Used output format : Internal WAV Routines
Sample format : 44.100 Hz; 16 Bit; Stereo
TOC of the extracted CD
Track | Start | Length | Start sector | End sector
---------------------------------------------------------
1 | 0:00.00 | 0:49.39 | 0 | 3713
2 | 0:49.39 | 4:14.01 | 3714 | 22764
3 | 5:03.40 | 3:30.12 | 22765 | 38526
4 | 8:33.52 | 4:00.37 | 38527 | 56563
5 | 12:34.14 | 4:53.20 | 56564 | 78558
6 | 17:27.34 | 2:58.00 | 78559 | 91908
7 | 20:25.34 | 4:49.37 | 91909 | 113620
8 | 25:14.71 | 3:17.38 | 113621 | 128433
9 | 28:32.34 | 3:02.70 | 128434 | 142153
10 | 31:35.29 | 4:27.30 | 142154 | 162208
11 | 36:02.59 | 8:18.34 | 162209 | 199592
12 | 44:21.18 | 4:06.70 | 199593 | 218112
13 | 48:28.13 | 3:51.72 | 218113 | 235509
14 | 52:20.10 | 3:23.43 | 235510 | 250777
15 | 55:43.53 | 4:52.74 | 250778 | 272751
16 | 60:36.52 | 5:21.00 | 272752 | 296826
17 | 65:57.52 | 4:54.73 | 296827 | 318949
18 | 70:52.50 | 4:37.74 | 318950 | 339798
19 | 75:30.49 | 4:14.20 | 339799 | 358868
Range status and errors
Selected range
Filename D:\Rip by Ballcrusher\Running Wild - Port Royal - The First Years Of Piracy.wav
Peak level 97.0 %
Extraction speed 4.3 X
Range quality 100.0 %
Test CRC 5CD16899
Copy CRC 5CD16899
Copy OK
No errors occurred
AccurateRip summary
Track 1 accurately ripped (confidence 1) [F6F31281] (AR v1)
Track 2 accurately ripped (confidence 1) [CAC3A55C] (AR v1)
Track 3 accurately ripped (confidence 1) [A0517BB4] (AR v1)
Track 4 accurately ripped (confidence 1) [062FB3A9] (AR v1)
Track 5 accurately ripped (confidence 1) [62E0D7BA] (AR v1)
Track 6 accurately ripped (confidence 1) [35F9E1EB] (AR v1)
Track 7 cannot be verified as accurate (confidence 1) [CF7B0AC7], AccurateRip returned [42035C6F] (AR v2)
Track 8 accurately ripped (confidence 1) [B8BE768D] (AR v1)
Track 9 cannot be verified as accurate (confidence 1) [7F0BB045], AccurateRip returned [9C900359] (AR v2)
Track 10 accurately ripped (confidence 1) [2636DD80] (AR v1)
Track 11 accurately ripped (confidence 1) [5F477DDC] (AR v1)
Track 12 accurately ripped (confidence 1) [12912C3F] (AR v1)
Track 13 accurately ripped (confidence 1) [F280BDEB] (AR v1)
Track 14 accurately ripped (confidence 1) [E2C27DCB] (AR v1)
Track 15 accurately ripped (confidence 1) [5022D8F7] (AR v1)
Track 16 accurately ripped (confidence 1) [5E721CFD] (AR v1)
Track 17 accurately ripped (confidence 1) [ADC07A73] (AR v1)
Track 18 accurately ripped (confidence 1) [9FFA2BD4] (AR v1)
Track 19 accurately ripped (confidence 1) [B076E68D] (AR v1)
17 трек(и) скопированы точно
2 трек(и) не удалось проверить на точность
Some tracks could not be verified as accurate
End of status report
==== Log checksum 4E311D0F3E86DA03A1E6D5B7A605CA59534BDA3E520D7DD35CECE5F44A1A1793 ====

1989 - Death Or Glory - Little Big Horn

01. Riding The Storm (6:28)
02. Renegade (4:32)
03. Evilution (4:46)
04. Running Blood (4:31)
05. Highland Glory (The Eternal Fight) (4:54)
06. Marooned (5:15)
07. Bad To The Bone (4:48)
08. Tortuga Bay (3:19)
09. Death Or Glory (3:57)
10. Battle Of Waterloo (7:50)
11. March On (4:16)
12. Hanged, Drawn And Quartered (4:43)
13. Win Or Be Drowned (4:22)
14. Little Big Horn (5:02)
15. Billy The Kid (4:50)
16. Genocide (4:47)

Лог создания рипа

Exact Audio Copy V1.0 beta 3 from 29. August 2011
EAC extraction logfile from 9. April 2012, 23:30
Running Wild / Death Or Glory / Little Big Horn
Used drive : HL-DT-STDVDRAM GSA-T50F Adapter: 0 ID: 2
Read mode : Secure
Utilize accurate stream : Yes
Defeat audio cache : Yes
Make use of C2 pointers : No
Read offset correction : 667
Overread into Lead-In and Lead-Out : No
Fill up missing offset samples with silence : Yes
Delete leading and trailing silent blocks : No
Null samples used in CRC calculations : Yes
Used interface : Installed external ASPI interface
Used output format : Internal WAV Routines
Sample format : 44.100 Hz; 16 Bit; Stereo
TOC of the extracted CD
Track | Start | Length | Start sector | End sector
---------------------------------------------------------
1 | 0:00.00 | 6:28.00 | 0 | 29099
2 | 6:28.00 | 4:31.38 | 29100 | 49462
3 | 10:59.38 | 4:45.46 | 49463 | 70883
4 | 15:45.09 | 4:31.18 | 70884 | 91226
5 | 20:16.27 | 4:54.13 | 91227 | 113289
6 | 25:10.40 | 5:14.53 | 113290 | 136892
7 | 30:25.18 | 4:48.18 | 136893 | 158510
8 | 35:13.36 | 3:18.70 | 158511 | 173430
9 | 38:32.31 | 3:57.25 | 173431 | 191230
10 | 42:29.56 | 7:50.18 | 191231 | 226498
11 | 50:19.74 | 4:15.39 | 226499 | 245662
12 | 54:35.38 | 4:42.56 | 245663 | 266868
13 | 59:18.19 | 4:21.64 | 266869 | 286507
14 | 63:40.08 | 5:01.38 | 286508 | 309120
15 | 68:41.46 | 4:49.67 | 309121 | 330862
16 | 73:31.38 | 4:47.35 | 330863 | 352422
Range status and errors
Selected range
Filename D:\Rip by Ballcrusher\Running Wild - Death Or Glory - Little Big Horn.wav
Peak level 98.4 %
Extraction speed 4.3 X
Range quality 100.0 %
Test CRC 048DE3EC
Copy CRC 048DE3EC
Copy OK
No errors occurred
AccurateRip summary
Track 1 accurately ripped (confidence 1) [393CF601] (AR v1)
Track 2 accurately ripped (confidence 1) [558E23CC] (AR v1)
Track 3 accurately ripped (confidence 1) [B384BAF3] (AR v1)
Track 4 accurately ripped (confidence 1) [BFE0EFD6] (AR v1)
Track 5 accurately ripped (confidence 1) [3483CC45] (AR v1)
Track 6 accurately ripped (confidence 1) [BD8305BC] (AR v1)
Track 7 accurately ripped (confidence 1) [5367D954] (AR v1)
Track 8 accurately ripped (confidence 1) [05306F0D] (AR v1)
Track 9 accurately ripped (confidence 1) [364544B1] (AR v1)
Track 10 accurately ripped (confidence 1) [AAC608F2] (AR v1)
Track 11 accurately ripped (confidence 1) [21FF9FA1] (AR v1)
Track 12 accurately ripped (confidence 1) [FC59E0DD] (AR v1)
Track 13 accurately ripped (confidence 1) [B484D8E7] (AR v1)
Track 14 accurately ripped (confidence 1) [E3E00422] (AR v1)
Track 15 accurately ripped (confidence 1) [A5393876] (AR v1)
Track 16 accurately ripped (confidence 1) [CFC6EC08] (AR v1)
All tracks accurately ripped
End of status report
==== Log checksum 411FCADFD42AC298A669F4A8F95840648EAE50BF651B322C004387DF6A473572 ====

1991 - Blazon Stone - Wild Animal

01. Blazon Stone (6:32)
02. Lonewolf (4:51)
03. Slavery (5:17)
04. Fire & Ice (4:11)
05. Little Big Horn (5:01)
06. Over The Rainbow (Instrumental) (1:58)
07. White Masque (4:19)
08. Rolling Wheels (5:33)
09. Bloody Red Rose (5:07)
10. Straight To Hell (3:52)
11. Heads Or Tails (4:58)
12. Wild Animal (4:14)
13. Chains And Leather (5:46)
14. Tear Down The Walls (4:18)
15. Stortebeker (4:09)
16. Diamonds Of The Black Chest [Bonus Track] (2:50)
17. Prisoner Of Our Time [Bonus Track] (4:35)

Лог создания рипа

Exact Audio Copy V1.0 beta 3 from 29. August 2011
EAC extraction logfile from 10. April 2012, 15:11
Running Wild / Blazon Stone / Wild Animal
Used drive : HL-DT-STDVDRAM GSA-T50F Adapter: 0 ID: 2
Read mode : Secure
Utilize accurate stream : Yes
Defeat audio cache : Yes
Make use of C2 pointers : No
Read offset correction : 667
Overread into Lead-In and Lead-Out : No
Fill up missing offset samples with silence : Yes
Delete leading and trailing silent blocks : No
Null samples used in CRC calculations : Yes
Used interface : Installed external ASPI interface
Used output format : Internal WAV Routines
Sample format : 44.100 Hz; 16 Bit; Stereo
TOC of the extracted CD
Track | Start | Length | Start sector | End sector
---------------------------------------------------------
1 | 0:00.00 | 6:32.34 | 0 | 29433
2 | 6:32.34 | 4:50.50 | 29434 | 51233
3 | 11:23.09 | 5:17.28 | 51234 | 75036
4 | 16:40.37 | 4:10.73 | 75037 | 93859
5 | 20:51.35 | 5:00.38 | 93860 | 116397
6 | 25:51.73 | 1:57.50 | 116398 | 125222
7 | 27:49.48 | 4:19.20 | 125223 | 144667
8 | 32:08.68 | 5:32.52 | 144668 | 169619
9 | 37:41.45 | 5:07.36 | 169620 | 192680
10 | 42:49.06 | 3:52.20 | 192681 | 210100
11 | 46:41.26 | 4:57.74 | 210101 | 232449
12 | 51:39.25 | 4:13.47 | 232450 | 251471
13 | 55:52.72 | 5:46.37 | 251472 | 277458
14 | 61:39.34 | 4:18.01 | 277459 | 296809
15 | 65:57.35 | 4:09.37 | 296810 | 315521
16 | 70:06.72 | 2:50.00 | 315522 | 328271
17 | 72:56.72 | 4:34.48 | 328272 | 348869
Range status and errors
Selected range
Filename D:\Rip by Ballcrusher\Running Wild - Blazon Stone - Wild Animal.wav
Peak level 100.0 %
Extraction speed 4.4 X
Range quality 100.0 %
Test CRC B247BB98
Copy CRC B247BB98
Copy OK
No errors occurred
AccurateRip summary
Track 1 accurately ripped (confidence 2) [BCDDDCFE] (AR v1)
Track 2 accurately ripped (confidence 2) [5315D7F6] (AR v1)
Track 3 accurately ripped (confidence 2) [A961E114] (AR v1)
Track 4 accurately ripped (confidence 2) [29BAC202] (AR v1)
Track 5 accurately ripped (confidence 2) [ABA3E179] (AR v1)
Track 6 accurately ripped (confidence 2) [CF76F390] (AR v1)
Track 7 accurately ripped (confidence 2) [553B28B8] (AR v1)
Track 8 accurately ripped (confidence 2) [686B4551] (AR v1)
Track 9 accurately ripped (confidence 2) [B0AF9A75] (AR v1)
Track 10 accurately ripped (confidence 2) [E825D663] (AR v1)
Track 11 accurately ripped (confidence 2) [D6B4B723] (AR v1)
Track 12 accurately ripped (confidence 2) [9ACCC061] (AR v1)
Track 13 accurately ripped (confidence 2) [79660333] (AR v1)
Track 14 accurately ripped (confidence 2) [A9947D91] (AR v1)
Track 15 accurately ripped (confidence 2) [472EDD59] (AR v1)
Track 16 accurately ripped (confidence 2) [54AE727C] (AR v1)
Track 17 accurately ripped (confidence 2) [0BD9A6A3] (AR v1)
All tracks accurately ripped
End of status report
==== Log checksum 6DEA8127CF17FE4C721C758D658630B8A7AF7DC562514FFE9975E41F80AFDED2 ====

1992 - Pile Of Skulls - Death Metal

01. Chamber Of Lies (2:22)
02. Whirlwind (4:54)
03. Sinister Eyes (5:09)
04. Black Wings Of Death (5:20)
05. Fistful Of Dynamite (4:08)
06. Roaring Thunder (5:59)
07. Pile Of Skulls (4:42)
08. Lead Of Gold (5:09)
09. White Buffalo (5:19)
10. Jenning's Revenge (4:20)
11. Treasure Island (11:18)
12. Iron Heads (3:47)
13. Bones To Ashes (5:17)

Лог создания рипа

Exact Audio Copy V1.0 beta 3 from 29. August 2011
EAC extraction logfile from 10. April 2012, 10:34
Running Wild / Pile Of Skulls / Death Metal
Used drive : HL-DT-STDVDRAM GSA-T50F Adapter: 0 ID: 2
Read mode : Secure
Utilize accurate stream : Yes
Defeat audio cache : Yes
Make use of C2 pointers : No
Read offset correction : 667
Overread into Lead-In and Lead-Out : No
Fill up missing offset samples with silence : Yes
Delete leading and trailing silent blocks : No
Null samples used in CRC calculations : Yes
Used interface : Installed external ASPI interface
Used output format : Internal WAV Routines
Sample format : 44.100 Hz; 16 Bit; Stereo
TOC of the extracted CD
Track | Start | Length | Start sector | End sector
---------------------------------------------------------
1 | 0:00.00 | 2:21.64 | 0 | 10638
2 | 2:21.64 | 4:54.30 | 10639 | 32718
3 | 7:16.19 | 5:08.44 | 32719 | 55862
4 | 12:24.63 | 5:19.57 | 55863 | 79844
5 | 17:44.45 | 4:08.08 | 79845 | 98452
6 | 21:52.53 | 5:58.65 | 98453 | 125367
7 | 27:51.43 | 4:41.58 | 125368 | 146500
8 | 32:33.26 | 5:09.14 | 146501 | 169689
9 | 37:42.40 | 5:19.28 | 169690 | 193642
10 | 43:01.68 | 4:20.14 | 193643 | 213156
11 | 47:22.07 | 11:18.05 | 213157 | 264011
12 | 58:40.12 | 3:46.42 | 264012 | 281003
13 | 62:26.54 | 5:17.27 | 281004 | 304805
Range status and errors
Selected range
Filename D:\Rip by Ballcrusher\Running Wild - Pile Of Skulls - Death Metal.wav
Peak level 99.9 %
Extraction speed 4.3 X
Range quality 100.0 %
Test CRC AB6F92E2
Copy CRC AB6F92E2
Copy OK
No errors occurred
AccurateRip summary
Track 1 accurately ripped (confidence 2) [D6B3C758] (AR v1)
Track 2 accurately ripped (confidence 2) [77A60FBE] (AR v1)
Track 3 accurately ripped (confidence 2) [47387C8E] (AR v1)
Track 4 accurately ripped (confidence 2) [504899A5] (AR v1)
Track 5 not present in database
Track 6 accurately ripped (confidence 2) [2140E6E7] (AR v1)
Track 7 accurately ripped (confidence 2) [E8BA93DE] (AR v1)
Track 8 accurately ripped (confidence 2) [CDC2A28B] (AR v1)
Track 9 accurately ripped (confidence 2) [1D0A9C27] (AR v1)
Track 10 accurately ripped (confidence 2) [B99E226A] (AR v1)
Track 11 accurately ripped (confidence 2) [3F252F9A] (AR v1)
Track 12 accurately ripped (confidence 2) [7DDF60BD] (AR v1)
Track 13 accurately ripped (confidence 2) [DCB598B5] (AR v1)
12 трек(и) скопированы точно
1 трек(и) не содержатся в базе AccurateRip
Some tracks could not be verified as accurate
End of status report
==== Log checksum 94A7EBC5638B57FDC606CB9D94ED6E7C7A212AFB7D5A3D6094F41C72383B508A ====

1994 - Black Hand Inn - Lead Or Gold

01. The Curse (3:10)
02. Black Hand Inn (4:33)
03. Mr. Deadhead (4:04)
04. Soulless (4:58)
05. The Privateer (4:23)
06. Fight The Fire Of Hate (6:36)
07. The Phantom Of Black Hand Hill (6:24)
08. Freewind Rider (5:18)
09. Powder & Iron (5:18)
10. Dragonmen (5:41)
11. Genesis (15:19)
12. Lead Or Gold ['Lead Or Gold' 1992 Single] (5:06)
13. Hanged, Drawn And Quartered ['Lead Or Gold' 1992 Single] (4:41)
14. Win Or Be Drowned ['Lead Or Gold' 1992 Single] (4:19)

Лог создания рипа

Exact Audio Copy V1.0 beta 3 from 29. August 2011
EAC extraction logfile from 14. April 2012, 11:46
Running Wild / Black Hand Inn + Lead Or Gold
Used drive : PIONEER DVD-RW DVR-112D Adapter: 1 ID: 0
Read mode : Secure
Utilize accurate stream : Yes
Defeat audio cache : Yes
Make use of C2 pointers : No
Read offset correction : 48
Overread into Lead-In and Lead-Out : No
Fill up missing offset samples with silence : Yes
Delete leading and trailing silent blocks : No
Null samples used in CRC calculations : Yes
Used interface : Installed external ASPI interface
Used output format : User Defined Encoder
Selected bitrate : 1024 kBit/s
Quality : High
Add ID3 tag : No
Command line compressor : C:\Program Files\Exact Audio Copy\FLAC\FLAC.EXE
Additional command line options : -V -8 -T "Date=%year%" -T "Genre=%genre%" %source%
TOC of the extracted CD
Track | Start | Length | Start sector | End sector
---------------------------------------------------------
1 | 0:00.00 | 3:10.26 | 0 | 14275
2 | 3:10.26 | 4:32.38 | 14276 | 34713
3 | 7:42.64 | 4:04.01 | 34714 | 53014
4 | 11:46.65 | 4:57.40 | 53015 | 75329
5 | 16:44.30 | 4:23.01 | 75330 | 95055
6 | 21:07.31 | 6:36.01 | 95056 | 124756
7 | 27:43.32 | 6:24.01 | 124757 | 153557
8 | 34:07.33 | 5:17.58 | 153558 | 177390
9 | 39:25.16 | 5:17.74 | 177391 | 201239
10 | 44:43.15 | 5:41.01 | 201240 | 226815
11 | 50:24.16 | 15:19.01 | 226816 | 295741
12 | 65:43.17 | 5:06.01 | 295742 | 318692
13 | 70:49.18 | 4:41.00 | 318693 | 339767
14 | 75:30.18 | 4:18.74 | 339768 | 359191
Range status and errors
Selected range
Filename C:\CDRip by Deminbek\Running Wild - Black Hand Inn + Lead Or Gold.wav
Peak level 95.7 %
Extraction speed 5.1 X
Range quality 100.0 %
Test CRC 3153E642
Copy CRC 3153E642
Copy OK
No errors occurred
AccurateRip summary
Track 1 accurately ripped (confidence 1) [1AAD85A6] (AR v1)
Track 2 accurately ripped (confidence 1) [B623E4DB] (AR v1)
Track 3 accurately ripped (confidence 1) [CA4F3EFC] (AR v1)
Track 4 accurately ripped (confidence 1) [E2656300] (AR v1)
Track 5 cannot be verified as accurate (confidence 1) [21F9ED3D], AccurateRip returned [2E392CB7] (AR v2)
Track 6 accurately ripped (confidence 1) [7399A8AD] (AR v1)
Track 7 accurately ripped (confidence 1) [7AFC9744] (AR v1)
Track 8 accurately ripped (confidence 1) [AA890934] (AR v1)
Track 9 accurately ripped (confidence 1) [84C10C21] (AR v1)
Track 10 accurately ripped (confidence 1) [71DFBD08] (AR v1)
Track 11 accurately ripped (confidence 1) [AEB1717E] (AR v1)
Track 12 accurately ripped (confidence 1) [7A7C392D] (AR v1)
Track 13 accurately ripped (confidence 1) [98B36136] (AR v1)
Track 14 accurately ripped (confidence 1) [9BB2B151] (AR v1)
13 трек(и) скопированы точно
1 трек(и) не удалось проверить на точность
Some tracks could not be verified as accurate
End of status report
---- CUETools DB Plugin V2.1.3
[CTDB TOCID: 4xvKDagsIqMY3jcpJxqPFJ12q9o-] disk not present in database, Submit result:
4xvKDagsIqMY3jcpJxqPFJ12q9o- has been uploaded
==== Log checksum EA85A726C6E978F84A0BE03EF6F406D6FE437AD15BCDBD460BB2333A82346BD9 ====

1995 - Masquerade - Walpurgis Night

01. The Contract / The Crypts Of Hades (2:20)
02. Masquerade (4:22)
03. Demonized (4:43)
04. Black Soul (5:20)
05. Lions Of The Sea (5:51)
06. Rebel At Heart (5:47)
07. Wheel Of Doom (4:04)
08. Metalhead (4:59)
09. Soleil Royal (4:47)
10. Men In Black (4:38)
11. Underworld (6:18)
12. Victim Of States Power (3:38)
13. Walpurgis Night (5:01)
14. Satan (4:11)

Лог создания рипа

Exact Audio Copy V0.99 prebeta 1 from 25. May 2007
EAC extraction logfile from 8. September 2010, 20:15
Running Wild / Masquerade + Walpurgis Night
Used drive : Optiarc DVD RW AD-7201S Adapter: 1 ID: 1
Read mode : Secure
Utilize accurate stream : Yes
Defeat audio cache : Yes
Make use of C2 pointers : No
Read offset correction : 48
Overread into Lead-In and Lead-Out : No
Fill up missing offset samples with silence : Yes
Delete leading and trailing silent blocks : No
Used interface : Installed external ASPI interface
Used output format : Internal WAV Routines
Sample format : 44.100 Hz; 16 Bit; Stereo
TOC of the extracted CD
Track | Start | Length | Start sector | End sector
---------------------------------------------------------
1 | 0:00.00 | 2:20.15 | 0 | 10514
2 | 2:20.15 | 4:22.34 | 10515 | 30198
3 | 6:42.49 | 4:42.73 | 30199 | 51421
4 | 11:25.47 | 5:19.52 | 51422 | 75398
5 | 16:45.24 | 5:51.33 | 75399 | 101756
6 | 22:36.57 | 5:46.38 | 101757 | 127744
7 | 28:23.20 | 4:04.00 | 127745 | 146044
8 | 32:27.20 | 4:59.00 | 146045 | 168469
9 | 37:26.20 | 4:46.53 | 168470 | 189972
10 | 42:12.73 | 4:38.03 | 189973 | 210825
11 | 46:51.01 | 6:18.01 | 210826 | 239176
12 | 53:09.02 | 3:38.00 | 239177 | 255526
13 | 56:47.02 | 5:00.38 | 255527 | 278064
14 | 61:47.40 | 4:11.14 | 278065 | 296903
Range status and errors
Selected range
Filename E:\CUE\Running Wild - Masquerade + Walpurgis Night.wav
Peak level 98.3 %
Range quality 100.0 %
Copy CRC 955E16BA
Copy OK
No errors occurred
End of status report

1998 - The Rivalry - Bonus Collection

01. March Of The Final Battle (The End Of All Evil) (2:00)
02. The Rivalry (5:37)
03. Kiss Of Death (3:40)
04. Firebreather (4:06)
05. Return Of The Dragon (6:48)
06. Ressurection (4:49)
07. Ballad Of William Kidd (8:44)
08. Agents Of Black (3:59)
09. Fire & Thunder (7:34)
10. The Poison (4:42)
11. Adventure Galley (4:21)
12. Man Of The Moon (4:51)
13. War & Peace (7:47)
14. Beggar`s Night (5:00)
15. Uaschitschun` 92 (5:04)

Лог создания рипа

Exact Audio Copy V1.0 beta 3 from 29. August 2011
EAC extraction logfile from 10. April 2012, 13:54
Running Wild / The Rivalry / Bonus Collection
Used drive : HL-DT-STDVDRAM GSA-T50F Adapter: 0 ID: 2
Read mode : Secure
Utilize accurate stream : Yes
Defeat audio cache : Yes
Make use of C2 pointers : No
Read offset correction : 667
Overread into Lead-In and Lead-Out : No
Fill up missing offset samples with silence : Yes
Delete leading and trailing silent blocks : No
Null samples used in CRC calculations : Yes
Used interface : Installed external ASPI interface
Used output format : Internal WAV Routines
Sample format : 44.100 Hz; 16 Bit; Stereo
TOC of the extracted CD
Track | Start | Length | Start sector | End sector
---------------------------------------------------------
1 | 0:00.00 | 2:00.21 | 0 | 9020
2 | 2:00.21 | 5:37.00 | 9021 | 34295
3 | 7:37.21 | 3:39.38 | 34296 | 50758
4 | 11:16.59 | 4:06.16 | 50759 | 69224
5 | 15:23.00 | 6:48.01 | 69225 | 99825
6 | 22:11.01 | 4:48.39 | 99826 | 121464
7 | 26:59.40 | 8:44.00 | 121465 | 160764
8 | 35:43.40 | 3:59.21 | 160765 | 178710
9 | 39:42.61 | 7:34.01 | 178711 | 212761
10 | 47:16.62 | 4:42.00 | 212762 | 233911
11 | 51:58.62 | 4:21.00 | 233912 | 253486
12 | 56:19.62 | 4:50.38 | 253487 | 275274
13 | 61:10.25 | 7:46.38 | 275275 | 310262
14 | 68:56.63 | 4:59.53 | 310263 | 332740
15 | 73:56.41 | 5:03.73 | 332741 | 355538
Range status and errors
Selected range
Filename D:\Rip by Ballcrusher\Running Wild - The Rivalry - Bonus Collection.wav
Peak level 100.0 %
Extraction speed 4.4 X
Range quality 100.0 %
Test CRC 0EBBF2E7
Copy CRC 0EBBF2E7
Copy OK
No errors occurred
AccurateRip summary
Track 1 accurately ripped (confidence 1) [2F13330B] (AR v1)
Track 2 accurately ripped (confidence 1) [F2DE1AFD] (AR v1)
Track 3 accurately ripped (confidence 1) [E93B3E61] (AR v1)
Track 4 accurately ripped (confidence 1) [8ECB45D5] (AR v1)
Track 5 accurately ripped (confidence 1) [70DF0170] (AR v1)
Track 6 accurately ripped (confidence 1) [9873B828] (AR v1)
Track 7 accurately ripped (confidence 1) [C245F09B] (AR v1)
Track 8 accurately ripped (confidence 1) [EB151564] (AR v1)
Track 9 accurately ripped (confidence 1) [37ADC2F9] (AR v1)
Track 10 accurately ripped (confidence 1) [618E91D1] (AR v1)
Track 11 accurately ripped (confidence 1) [ED2E9B03] (AR v1)
Track 12 accurately ripped (confidence 1) [43465ED6] (AR v1)
Track 13 accurately ripped (confidence 1) [C6EAE642] (AR v1)
Track 14 accurately ripped (confidence 1) [B7EE94C0] (AR v1)
Track 15 accurately ripped (confidence 1) [0AFA22A7] (AR v1)
All tracks accurately ripped
End of status report
==== Log checksum 5F421BEDB310282A16B9EE0493850EFC11B3C255FD3C14D03E4E0D477532E988 ====

1999 - Victory - The Privateer

01. Fall Of Dorkas (5:16)
02. When Time Runs Out (5:18)
03. Timeriders (4:26)
04. Into The Fire (4:58)
05. Revolution (2:59)
06. The Final Waltz (1:21)
07. Tsar (7:09)
08. The Hussar (4:06)
09. The Guardian (5:07)
10. Return Of The Gods (5:31)
11. Silent Killer (4:45)
12. Victory (4:53)
13. The Privateer (4:24)
14. Poisoned Blood (3:44)
15. Dancing On A Minefield (5:00)

Лог создания рипа

Exact Audio Copy V1.0 beta 3 from 29. August 2011
EAC extraction logfile from 10. April 2012, 9:54
Running Wild / Victory / The Privateer
Used drive : HL-DT-STDVDRAM GSA-T50F Adapter: 0 ID: 2
Read mode : Secure
Utilize accurate stream : Yes
Defeat audio cache : Yes
Make use of C2 pointers : No
Read offset correction : 667
Overread into Lead-In and Lead-Out : No
Fill up missing offset samples with silence : Yes
Delete leading and trailing silent blocks : No
Null samples used in CRC calculations : Yes
Used interface : Installed external ASPI interface
Used output format : Internal WAV Routines
Sample format : 44.100 Hz; 16 Bit; Stereo
TOC of the extracted CD
Track | Start | Length | Start sector | End sector
---------------------------------------------------------
1 | 0:00.00 | 5:16.00 | 0 | 23699
2 | 5:16.00 | 5:18.36 | 23700 | 47585
3 | 10:34.36 | 4:25.73 | 47586 | 67533
4 | 15:00.34 | 4:57.38 | 67534 | 89846
5 | 19:57.72 | 2:58.38 | 89847 | 103234
6 | 22:56.35 | 1:21.23 | 103235 | 109332
7 | 24:17.58 | 7:09.00 | 109333 | 141507
8 | 31:26.58 | 4:06.00 | 141508 | 159957
9 | 35:32.58 | 5:07.03 | 159958 | 182985
10 | 40:39.61 | 5:30.74 | 182986 | 207809
11 | 46:10.60 | 4:44.38 | 207810 | 229147
12 | 50:55.23 | 4:52.54 | 229148 | 251101
13 | 55:48.02 | 4:23.40 | 251102 | 270866
14 | 60:11.42 | 3:44.37 | 270867 | 287703
15 | 63:56.04 | 5:00.33 | 287704 | 310236
Range status and errors
Selected range
Filename D:\Rip by Ballcrusher\Running Wild - Victory - The Privateer.wav
Peak level 99.9 %
Extraction speed 4.3 X
Range quality 100.0 %
Test CRC CD1B25C3
Copy CRC CD1B25C3
Copy OK
No errors occurred
AccurateRip summary
Track 1 not present in database
Track 2 not present in database
Track 3 not present in database
Track 4 not present in database
Track 5 not present in database
Track 6 not present in database
Track 7 not present in database
Track 8 not present in database
Track 9 not present in database
Track 10 not present in database
Track 11 not present in database
Track 12 not present in database
Track 13 not present in database
Track 14 not present in database
Track 15 not present in database
None of the tracks are present in the AccurateRip database
End of status report
==== Log checksum 521033BC18BCFFE7A44C5AA764369DFE83747EF0F3751A193C08381CB38B3772 ====

2002 - The Brotherhood - Singles Collection

01. Welcome To Hell (4:35)
02. Soulstripper (4:47)
03. The Brotherhood (6:48)
04. Crossfire (4:28)
05. Siberian Winter (6:27)
06. Detonator (3:51)
07. Pirate Song (3:17)
08. Unation (5:47)
09. Dr. Horror (4:54)
10. The Ghost (10:18)
11. Powerride (4:25)
12. Faceless (4:30)
13. Walpurgis Night (4:38)
14. Satan (3:22)
15. March On (4:09)
16. Poisoned Blood (3:42)

Лог создания рипа

Exact Audio Copy V1.0 beta 3 from 29. August 2011
EAC extraction logfile from 10. April 2012, 14:32
Running Wild / The Brotherhood / Singles Collection
Used drive : HL-DT-STDVDRAM GSA-T50F Adapter: 0 ID: 2
Read mode : Secure
Utilize accurate stream : Yes
Defeat audio cache : Yes
Make use of C2 pointers : No
Read offset correction : 667
Overread into Lead-In and Lead-Out : No
Fill up missing offset samples with silence : Yes
Delete leading and trailing silent blocks : No
Null samples used in CRC calculations : Yes
Used interface : Installed external ASPI interface
Used output format : Internal WAV Routines
Sample format : 44.100 Hz; 16 Bit; Stereo
TOC of the extracted CD
Track | Start | Length | Start sector | End sector
---------------------------------------------------------
1 | 0:00.00 | 4:35.00 | 0 | 20624
2 | 4:35.00 | 4:47.37 | 20625 | 42186
3 | 9:22.37 | 6:48.00 | 42187 | 72786
4 | 16:10.37 | 4:27.38 | 72787 | 92849
5 | 20:38.00 | 6:27.00 | 92850 | 121874
6 | 27:05.00 | 3:51.01 | 121875 | 139200
7 | 30:56.01 | 3:17.01 | 139201 | 153976
8 | 34:13.02 | 5:46.38 | 153977 | 179964
9 | 39:59.40 | 4:53.38 | 179965 | 201977
10 | 44:53.03 | 10:18.00 | 201978 | 248327
11 | 55:11.03 | 4:25.01 | 248328 | 268203
12 | 59:36.04 | 4:29.48 | 268204 | 288426
13 | 64:05.52 | 4:38.00 | 288427 | 309276
14 | 68:43.52 | 3:21.58 | 309277 | 324409
15 | 72:05.35 | 4:09.00 | 324410 | 343084
16 | 76:14.35 | 3:42.01 | 343085 | 359735
Range status and errors
Selected range
Filename D:\Rip by Ballcrusher\Running Wild - The Brotherhood - Singles Collection.wav
Peak level 100.0 %
Extraction speed 4.4 X
Range quality 100.0 %
Test CRC E0C16AA5
Copy CRC E0C16AA5
Copy OK
No errors occurred
AccurateRip summary
Track 1 not present in database
Track 2 not present in database
Track 3 not present in database
Track 4 not present in database
Track 5 not present in database
Track 6 not present in database
Track 7 not present in database
Track 8 not present in database
Track 9 not present in database
Track 10 not present in database
Track 11 not present in database
Track 12 not present in database
Track 13 not present in database
Track 14 not present in database
Track 15 not present in database
Track 16 not present in database
None of the tracks are present in the AccurateRip database
End of status report
==== Log checksum 712C5175E1378A0F00F44933F37FBBACBE47B79C06BD10A277AF806B40FD5C9D ====

To download the file disable ad blocking, and reload the page.

disable adblock How to disable ad blocking?

Download by magnet link 6.27 GB Download Torrent

Login using:

Загрузка...

Similar topics

(Speed | Heavy Metal) Speedclaw - Beast in the Mist - 2018, MP3, 320 kbps
 71 MB   0 | 0   18-Nov-18 20:46   2


   
Current time is: 18-Dec 20:07 :: All times are UTC + 3