Panacea - Twisted Designz
Жанр: Drum & Bass
Год выпуска диска: 1998
Производитель диска: Germany
Аудио кодек: FLAC
Тип рипа: tracks+.cue
Битрейт аудио: lossless
Продолжительность: 00:58:58
Трэклист:
1. Airborne (Intro)
2. Menhater
3. Antifunk
4. Unglory
5. Twisted Designz
6. Lightbringer
7. Motion Sickness
8. Quantum Loop
9. Tobsucht Panacea in Effect
10. Ektachrome (Outro)
Доп. информация:

Отчёт EAC

EAC extraction logfile from 25. October 2006, 21:00 for CD
Panacea / Twisted Designz [PC 25]
Used drive : SONY DVD RW DW-G120A Adapter: 3 ID: 0
Read mode : Secure with NO C2, accurate stream, disable cache
Read offset correction : 6
Overread into Lead-In and Lead-Out : No
Used output format : C:\Program Files\FLAC\flac.exe (User Defined Encoder)
128 kBit/s
Additional command line options : -V -8 -T "artist=%a" -T "title=%t" -T "album=%g" -T "date=%y" -T "tracknumber=%n" -T "genre=%m" %s
Other options :
Fill up missing offset samples with silence : Yes
Delete leading and trailing silent blocks : No
Native Win32 interface for Win NT & 2000
Track 1
Filename C:\Documents and Settings\td\Desktop\downloads\rips\Panacea - Twisted Designz [PC 25]\01 - Airborne (Intro).wav
Pre-gap length 0:00:02.00
Peak level 100.0 %
Track quality 100.0 %
Test CRC 61713EBD
Copy CRC 61713EBD
Copy OK
Track 2
Filename C:\Documents and Settings\td\Desktop\downloads\rips\Panacea - Twisted Designz [PC 25]\02 - Menhater.wav
Peak level 100.0 %
Track quality 100.0 %
Test CRC FCC038DA
Copy CRC FCC038DA
Copy OK
Track 3
Filename C:\Documents and Settings\td\Desktop\downloads\rips\Panacea - Twisted Designz [PC 25]\03 - Anti-Funk.wav
Pre-gap length 0:00:01.76
Peak level 100.0 %
Track quality 100.0 %
Test CRC BE0709EF
Copy CRC BE0709EF
Copy OK
Track 4
Filename C:\Documents and Settings\td\Desktop\downloads\rips\Panacea - Twisted Designz [PC 25]\04 - Unglory.wav
Pre-gap length 0:00:01.76
Peak level 100.0 %
Track quality 100.0 %
Test CRC 2022A4EB
Copy CRC 2022A4EB
Copy OK
Track 5
Filename C:\Documents and Settings\td\Desktop\downloads\rips\Panacea - Twisted Designz [PC 25]\05 - Twisted Designz.wav
Pre-gap length 0:00:01.76
Peak level 100.0 %
Track quality 100.0 %
Test CRC 50E15DF9
Copy CRC 50E15DF9
Copy OK
Track 6
Filename C:\Documents and Settings\td\Desktop\downloads\rips\Panacea - Twisted Designz [PC 25]\06 - Lightbringer.wav
Pre-gap length 0:00:01.76
Peak level 100.0 %
Track quality 99.9 %
Test CRC A94F792A
Copy CRC A94F792A
Copy OK
Track 7
Filename C:\Documents and Settings\td\Desktop\downloads\rips\Panacea - Twisted Designz [PC 25]\07 - Motion Sickness.wav
Pre-gap length 0:00:01.76
Peak level 100.0 %
Track quality 100.0 %
Test CRC 024EC464
Copy CRC 024EC464
Copy OK
Track 8
Filename C:\Documents and Settings\td\Desktop\downloads\rips\Panacea - Twisted Designz [PC 25]\08 - Quantum Loop.wav
Pre-gap length 0:00:01.76
Peak level 100.0 %
Track quality 100.0 %
Test CRC A390780F
Copy CRC A390780F
Copy OK
Track 9
Filename C:\Documents and Settings\td\Desktop\downloads\rips\Panacea - Twisted Designz [PC 25]\09 - Tobsucht (Panacea In Effect).wav
Pre-gap length 0:00:01.76
Peak level 100.0 %
Track quality 100.0 %
Test CRC CB069FD2
Copy CRC CB069FD2
Copy OK
Track 10
Filename C:\Documents and Settings\td\Desktop\downloads\rips\Panacea - Twisted Designz [PC 25]\10 - Ektachrome (Outro).wav
Pre-gap length 0:00:01.76
Peak level 100.0 %
Track quality 99.9 %
Test CRC F19BBF2A
Copy CRC F19BBF2A
Copy OK
No errors occured
End of status report

If you like the topic, please click share to help develop our site.

To download the file disable ad blocking, and reload the page.

disable adblock How to disable ad blocking?

Download by magnet link 413 MB Download Torrent

Login using:

Similar topics



   
Current time is: 25-May 18:57 :: All times are UTC + 3