Enduser - Pushing Back [2006/FLAC/Lossless/Log/Cue]
Страна: Germany
Жанр: Drum 'n' Bass, Breakcore
Год выпуска: 2006
Формат: FLAC (tracks+.cue)
Битрейт аудио: lossless
Продолжительность: 1:01:31
Трэклист:
1. Starting... Now (3:22)
2. Switch (4:56)
3. Positioned [Featuring - Nongenetic of Shadow Huntaz] (5:11)
4. Across (5:12)
5. Genesis [Featuring - Kazumi] (5:47)
6. The Catalyst [DJ Hidden Remix] (5:24)
7. An Apology (5:32)
8. Pushing Chaos [Bong-Ra Remix] (5:29)
9. Pushing Back (4:24)
10. Off (5:27)
11. The Maker [Featuring - Jared Louche of Chemlab] (3:44)
12. Pushing Chaos (6:57)
Доп. информация:
Label: Ad Noiseam
Catalog#: adn 67cd
Format: CD, Album, Digipak
Credits:
Artwork By - Nicolas Chevreux
Mastered By - John Sellekaers
Producer - Enduser
Notes: Actual catalogue number is: adn67cd

EAC log

EAC extraction logfile from 1. November 2006, 15:06 for CD
Enduser / Pushing Back
Used drive : _NEC DVD_RW ND-3500AG Adapter: 4 ID: 0
Read mode : Secure with NO C2, accurate stream, disable cache
Read offset correction : 48
Overread into Lead-In and Lead-Out : No
Used output format : C:\Program Files\Exact Audio Copy\flac.exe (User Defined Encoder)
32 kBit/s
Additional command line options : -8 -V -T "artist=%a" -T "title=%t" -T "album=%g" -T "date=%y" -T "tracknumber=%n" -T "genre=%m" %s
Other options :
Fill up missing offset samples with silence : Yes
Delete leading and trailing silent blocks : No
Installed external ASPI interface
Track 1
Filename C:\EAC Rips 2\Enduser\Pushing Back\01 - 1 Starting... Now.wav
Pre-gap length 0:00:02.00
Peak level 96.6 %
Track quality 100.0 %
Test CRC 00633271
Copy CRC 00633271
Copy OK
Track 2
Filename C:\EAC Rips 2\Enduser\Pushing Back\02 - 2 Switch.wav
Pre-gap length 0:00:01.72
Peak level 96.6 %
Track quality 100.0 %
Test CRC 68181A14
Copy CRC 68181A14
Copy OK
Track 3
Filename C:\EAC Rips 2\Enduser\Pushing Back\03 - 3 Positioned (featuring Nongenetic of Shadow Huntaz).wav
Pre-gap length 0:00:01.78
Peak level 96.6 %
Track quality 100.0 %
Test CRC 76C088DE
Copy CRC 76C088DE
Copy OK
Track 4
Filename C:\EAC Rips 2\Enduser\Pushing Back\04 - 4 Across.wav
Pre-gap length 0:00:01.77
Peak level 91.2 %
Track quality 100.0 %
Test CRC EB1991AF
Copy CRC EB1991AF
Copy OK
Track 5
Filename C:\EAC Rips 2\Enduser\Pushing Back\05 - 5 Genesis (featuring Kazumi).wav
Pre-gap length 0:00:01.98
Peak level 86.1 %
Track quality 100.0 %
Test CRC 27C9D0B4
Copy CRC 27C9D0B4
Copy OK
Track 6
Filename C:\EAC Rips 2\Enduser\Pushing Back\06 - 6 The Catalyst (DJ Hidden remix).wav
Pre-gap length 0:00:01.81
Peak level 96.6 %
Track quality 100.0 %
Test CRC C8B2078E
Copy CRC C8B2078E
Copy OK
Track 7
Filename C:\EAC Rips 2\Enduser\Pushing Back\07 - 7 An Apology.wav
Pre-gap length 0:00:01.78
Peak level 96.6 %
Track quality 100.0 %
Test CRC 27F7A25D
Copy CRC 27F7A25D
Copy OK
Track 8
Filename C:\EAC Rips 2\Enduser\Pushing Back\08 - 8 Pushing Chaos (Bong-Ra remix).wav
Pre-gap length 0:00:02.02
Peak level 96.6 %
Track quality 100.0 %
Test CRC 4F4505CF
Copy CRC 4F4505CF
Copy OK
Track 9
Filename C:\EAC Rips 2\Enduser\Pushing Back\09 - 9 Pushing Back.wav
Pre-gap length 0:00:01.74
Peak level 91.2 %
Track quality 100.0 %
Test CRC 6C043C4F
Copy CRC 6C043C4F
Copy OK
Track 10
Filename C:\EAC Rips 2\Enduser\Pushing Back\10 - 10 Off.wav
Pre-gap length 0:00:01.70
Peak level 96.6 %
Track quality 100.0 %
Test CRC 52C530F1
Copy CRC 52C530F1
Copy OK
Track 11
Filename C:\EAC Rips 2\Enduser\Pushing Back\11 - 11 The Maker (featuring Jared Louche of Chemlab).wav
Pre-gap length 0:00:01.73
Peak level 86.1 %
Track quality 100.0 %
Test CRC 36812F47
Copy CRC 36812F47
Copy OK
Track 12
Filename C:\EAC Rips 2\Enduser\Pushing Back\12 - 12 Pushing Chaos.wav
Pre-gap length 0:00:01.76
Peak level 96.6 %
Track quality 99.9 %
Test CRC FB4518D2
Copy CRC FB4518D2
Copy OK
No errors occured
End of status report

If you like the topic, please click share to help develop our site.

To download the file disable ad blocking, and reload the page.

disable adblock How to disable ad blocking?

Download by magnet link 424 MB Download Torrent

Login using:



   
Current time is: 25-May 18:22 :: All times are UTC + 3