Nebula / Astronomy
Жанр: Drumfunk, Jungle, Drum & Bass
Носитель: CD
Год издания: 2017
Издатель (лейбл): Scientific Wax
Номер по каталогу: SWCD002
Страна исполнителя (группы): UK
Аудиокодек: FLAC (*.flac)
Тип рипа: tracks+.cue
Битрейт аудио: lossless
Продолжительность: 1:15:07
Источник (релизер): другой трекер / scientificwax
Наличие сканов в содержимом раздачи: нет
Треклист:
01. Nebula - Inner Voice
02. Nebula - Oceans
03. Nebula - Cascade
04. Nebula - Extensions of Life
05. Nebula - Dreams of Earth
06. Nebula - Natural World
07. Nebula - Rolling Waves
08. Nebula - Rarity
09. Nebula - Midnight Odyssey
10. Nebula - True Love
11. Nebula - Be Strong
12. Nebula - Be Strong Reprise (ft. Equinox)

Лог создания рипа

Exact Audio Copy V1.1 from 23. June 2015
EAC extraction logfile from 29. April 2017, 10:13
Nebula / Astronomy
Used drive : hp DVD RAM UJ8C2 Adapter: 1 ID: 0
Read mode : Secure
Utilize accurate stream : Yes
Defeat audio cache : Yes
Make use of C2 pointers : No
Read offset correction : 103
Overread into Lead-In and Lead-Out : No
Fill up missing offset samples with silence : Yes
Delete leading and trailing silent blocks : No
Null samples used in CRC calculations : Yes
Used interface : Native Win32 interface for Win NT & 2000
Gap handling : Appended to previous track
Used output format : User Defined Encoder
Selected bitrate : 1024 kBit/s
Quality : High
Add ID3 tag : No
Command line compressor : C:\Program Files (x86)\Exact Audio Copy\Flac\flac.exe
Additional command line options : -8 -V -T "ARTIST=%artist%" -T "TITLE=%title%" -T "ALBUM=%albumtitle%" -T "DATE=%year%" -T "TRACKNUMBER=%tracknr%" -T "GENRE=%genre%" -T "PERFORMER=%albuminterpret%" -T "COMPOSER=%composer%" %haslyrics%--tag-from-file=LYRICS="%lyricsfile%"%haslyrics% -T "ALBUMARTIST=%albumartist%" -T "DISCNUMBER=%cdnumber%" -T "TOTALDISCS=%totalcds%" -T "TOTALTRACKS=%numtracks%" -T "COMMENT=%comment%" %source% -o %dest%
TOC of the extracted CD
Track | Start | Length | Start sector | End sector
---------------------------------------------------------
1 | 0:00.00 | 5:57.24 | 0 | 26798
2 | 5:57.24 | 6:22.32 | 26799 | 55480
3 | 12:19.56 | 6:32.36 | 55481 | 84916
4 | 18:52.17 | 7:08.09 | 84917 | 117025
5 | 26:00.26 | 6:06.34 | 117026 | 144509
6 | 32:06.60 | 6:33.38 | 144510 | 174022
7 | 38:40.23 | 6:51.24 | 174023 | 204871
8 | 45:31.47 | 6:27.01 | 204872 | 233897
9 | 51:58.48 | 6:18.05 | 233898 | 262252
10 | 58:16.53 | 6:08.02 | 262253 | 289854
11 | 64:24.55 | 7:21.04 | 289855 | 322933
12 | 71:45.59 | 3:21.03 | 322934 | 338011
Track 1
Filename C:\Users\AdChaBaBo\Music\(Tykal)\Tykal's Vinyl Rips\[2017_Scientific_Wax_SWCD002] Nebula - Astronomy (FLAC)\01 Inner Voice.wav
Pre-gap length 0:00:02.00
Peak level 100.0 %
Extraction speed 2.7 X
Track quality 100.0 %
Test CRC C208E8CA
Copy CRC C208E8CA
Track not present in AccurateRip database
Copy OK
Track 2
Filename C:\Users\AdChaBaBo\Music\(Tykal)\Tykal's Vinyl Rips\[2017_Scientific_Wax_SWCD002] Nebula - Astronomy (FLAC)\02 Oceans.wav
Pre-gap length 0:00:02.00
Peak level 100.0 %
Extraction speed 2.5 X
Track quality 99.9 %
Test CRC 9E7058D3
Copy CRC 9E7058D3
Track not present in AccurateRip database
Copy OK
Track 3
Filename C:\Users\AdChaBaBo\Music\(Tykal)\Tykal's Vinyl Rips\[2017_Scientific_Wax_SWCD002] Nebula - Astronomy (FLAC)\03 Cascade.wav
Pre-gap length 0:00:02.00
Peak level 100.0 %
Extraction speed 3.4 X
Track quality 100.0 %
Test CRC BAC33E78
Copy CRC BAC33E78
Track not present in AccurateRip database
Copy OK
Track 4
Filename C:\Users\AdChaBaBo\Music\(Tykal)\Tykal's Vinyl Rips\[2017_Scientific_Wax_SWCD002] Nebula - Astronomy (FLAC)\04 Extensions of Life.wav
Pre-gap length 0:00:02.00
Peak level 100.0 %
Extraction speed 3.8 X
Track quality 100.0 %
Test CRC CDB3C006
Copy CRC CDB3C006
Track not present in AccurateRip database
Copy OK
Track 5
Filename C:\Users\AdChaBaBo\Music\(Tykal)\Tykal's Vinyl Rips\[2017_Scientific_Wax_SWCD002] Nebula - Astronomy (FLAC)\05 Dreams of Earth.wav
Pre-gap length 0:00:02.00
Peak level 100.0 %
Extraction speed 3.9 X
Track quality 100.0 %
Test CRC 885E2A6A
Copy CRC 885E2A6A
Track not present in AccurateRip database
Copy OK
Track 6
Filename C:\Users\AdChaBaBo\Music\(Tykal)\Tykal's Vinyl Rips\[2017_Scientific_Wax_SWCD002] Nebula - Astronomy (FLAC)\06 Natural World.wav
Pre-gap length 0:00:02.00
Peak level 100.0 %
Extraction speed 4.3 X
Track quality 100.0 %
Test CRC D9C0A667
Copy CRC D9C0A667
Track not present in AccurateRip database
Copy OK
Track 7
Filename C:\Users\AdChaBaBo\Music\(Tykal)\Tykal's Vinyl Rips\[2017_Scientific_Wax_SWCD002] Nebula - Astronomy (FLAC)\07 Rolling Waves.wav
Pre-gap length 0:00:02.00
Peak level 100.0 %
Extraction speed 3.7 X
Track quality 99.9 %
Test CRC FCCE7C4A
Copy CRC FCCE7C4A
Track not present in AccurateRip database
Copy OK
Track 8
Filename C:\Users\AdChaBaBo\Music\(Tykal)\Tykal's Vinyl Rips\[2017_Scientific_Wax_SWCD002] Nebula - Astronomy (FLAC)\08 Rarity.wav
Peak level 100.0 %
Extraction speed 4.7 X
Track quality 100.0 %
Test CRC D952DDF2
Copy CRC D952DDF2
Track not present in AccurateRip database
Copy OK
Track 9
Filename C:\Users\AdChaBaBo\Music\(Tykal)\Tykal's Vinyl Rips\[2017_Scientific_Wax_SWCD002] Nebula - Astronomy (FLAC)\09 Midnight Odyssey.wav
Pre-gap length 0:00:02.00
Peak level 100.0 %
Extraction speed 4.9 X
Track quality 100.0 %
Test CRC 2C8F2A38
Copy CRC 2C8F2A38
Track not present in AccurateRip database
Copy OK
Track 10
Filename C:\Users\AdChaBaBo\Music\(Tykal)\Tykal's Vinyl Rips\[2017_Scientific_Wax_SWCD002] Nebula - Astronomy (FLAC)\10 True Love.wav
Pre-gap length 0:00:02.00
Peak level 100.0 %
Extraction speed 5.1 X
Track quality 100.0 %
Test CRC 824A1B25
Copy CRC 824A1B25
Track not present in AccurateRip database
Copy OK
Track 11
Filename C:\Users\AdChaBaBo\Music\(Tykal)\Tykal's Vinyl Rips\[2017_Scientific_Wax_SWCD002] Nebula - Astronomy (FLAC)\11 Be Strong.wav
Pre-gap length 0:00:02.00
Peak level 100.0 %
Extraction speed 5.3 X
Track quality 100.0 %
Test CRC 4D377DC3
Copy CRC 4D377DC3
Track not present in AccurateRip database
Copy OK
Track 12
Filename C:\Users\AdChaBaBo\Music\(Tykal)\Tykal's Vinyl Rips\[2017_Scientific_Wax_SWCD002] Nebula - Astronomy (FLAC)\12 Be Strong Reprise (ft. Equinox).wav
Pre-gap length 0:00:02.00
Peak level 100.0 %
Extraction speed 5.1 X
Track quality 100.0 %
Test CRC 5EAFA5CD
Copy CRC 5EAFA5CD
Track not present in AccurateRip database
Copy OK
None of the tracks are present in the AccurateRip database
No errors occurred
End of status report
---- CUETools DB Plugin V2.1.6
[CTDB TOCID: ILtOW7kkt7dHFZDVE3iUJ4u7nC8-] found
Submit result: ILtOW7kkt7dHFZDVE3iUJ4u7nC8- has been confirmed
Track | CTDB Status
1 | (2/2) Accurately ripped
2 | (2/2) Accurately ripped
3 | (2/2) Accurately ripped
4 | (2/2) Accurately ripped
5 | (2/2) Accurately ripped
6 | (2/2) Accurately ripped
7 | (2/2) Accurately ripped
8 | (2/2) Accurately ripped
9 | (2/2) Accurately ripped
10 | (2/2) Accurately ripped
11 | (2/2) Accurately ripped
12 | (2/2) Accurately ripped
==== Log checksum 751691800AD8CEEA09F8135AA4E0009401859C16B1B5509D55872088D10D8F93 ====

Содержание индексной карты (.CUE)

REM GENRE Jungle
REM DATE 2017
REM DISCID A5119A0C
REM COMMENT "ExactAudioCopy v1.1"
PERFORMER "Nebula"
TITLE "Astronomy"
FILE "01 Inner Voice.wav" WAVE
TRACK 01 AUDIO
TITLE "Inner Voice"
PERFORMER "Nebula"
FLAGS DCP
INDEX 01 00:00:00
TRACK 02 AUDIO
TITLE "Oceans"
PERFORMER "Nebula"
FLAGS DCP
INDEX 00 05:55:24
FILE "02 Oceans.wav" WAVE
INDEX 01 00:00:00
TRACK 03 AUDIO
TITLE "Cascade"
PERFORMER "Nebula"
FLAGS DCP
INDEX 00 06:20:32
FILE "03 Cascade.wav" WAVE
INDEX 01 00:00:00
TRACK 04 AUDIO
TITLE "Extensions of Life"
PERFORMER "Nebula"
FLAGS DCP
INDEX 00 06:30:36
FILE "04 Extensions of Life.wav" WAVE
INDEX 01 00:00:00
TRACK 05 AUDIO
TITLE "Dreams of Earth"
PERFORMER "Nebula"
FLAGS DCP
INDEX 00 07:06:09
FILE "05 Dreams of Earth.wav" WAVE
INDEX 01 00:00:00
TRACK 06 AUDIO
TITLE "Natural World"
PERFORMER "Nebula"
FLAGS DCP
INDEX 00 06:04:34
FILE "06 Natural World.wav" WAVE
INDEX 01 00:00:00
TRACK 07 AUDIO
TITLE "Rolling Waves"
PERFORMER "Nebula"
FLAGS DCP
INDEX 00 06:31:38
FILE "07 Rolling Waves.wav" WAVE
INDEX 01 00:00:00
FILE "08 Rarity.wav" WAVE
TRACK 08 AUDIO
TITLE "Rarity"
PERFORMER "Nebula"
FLAGS DCP
INDEX 01 00:00:00
TRACK 09 AUDIO
TITLE "Midnight Odyssey"
PERFORMER "Nebula"
FLAGS DCP
INDEX 00 06:25:01
FILE "09 Midnight Odyssey.wav" WAVE
INDEX 01 00:00:00
TRACK 10 AUDIO
TITLE "True Love"
PERFORMER "Nebula"
FLAGS DCP
INDEX 00 06:16:05
FILE "10 True Love.wav" WAVE
INDEX 01 00:00:00
TRACK 11 AUDIO
TITLE "Be Strong"
PERFORMER "Nebula"
FLAGS DCP
INDEX 00 06:06:02
FILE "11 Be Strong.wav" WAVE
INDEX 01 00:00:00
TRACK 12 AUDIO
TITLE "Be Strong Reprise (ft. Equinox)"
PERFORMER "Nebula"
FLAGS DCP
INDEX 00 07:19:04
FILE "12 Be Strong Reprise (ft. Equinox).wav" WAVE
INDEX 01 00:00:00

Лог проверки качества

-----------------------
DON'T MODIFY THIS FILE
-----------------------
PERFORMER: auCDtect Task Manager, ver. 1.6.0 RC1 build 1.6.0.1
Copyright (c) 2008-2010 y-soft. All rights reserved
http://y-soft.org
ANALYZER: auCDtect: CD records authenticity detector, version 0.8.2
Copyright (c) 2004 Oleg Berngardt. All rights reserved.
Copyright (c) 2004 Alexander Djourik. All rights reserved.
FILE: 12 Be Strong Reprise (ft. Equinox).flac
Size: 23094275 Hash: 5C0B6BA50B243E8AD560D534ABF23D83 Accuracy: -m0
Conclusion: CDDA 100%
Signature: AAE9BE54606DB06462003198B4CD610F7EA0D567
FILE: 11 Be Strong.flac
Size: 42801909 Hash: 55DA1A042B50D81D155996CEEFB6F3AA Accuracy: -m0
Conclusion: CDDA 100%
Signature: 7E7B9E12449FF8B638A26A33BAB91B2F838CF61F
FILE: 10 True Love.flac
Size: 37238512 Hash: 4EA994EBB1EECBF8F3263DF4FE824F69 Accuracy: -m0
Conclusion: CDDA 100%
Signature: A8F405D2776ED52FF0CC98C625336D6DEFC442D5
FILE: 09 Midnight Odyssey.flac
Size: 41148686 Hash: 553895FDFB218EF9BF5EBC0E51F853E7 Accuracy: -m0
Conclusion: CDDA 100%
Signature: A07CF53C2E4E6AD4F1FF2D940D3AC15561051E8F
FILE: 08 Rarity.flac
Size: 35729426 Hash: 633ED24F3AA42FDDE2175877A0D61AC4 Accuracy: -m0
Conclusion: CDDA 100%
Signature: 3181E105DF6DD478CD52DE8FAFE7F820D1D6AF0F
FILE: 07 Rolling Waves.flac
Size: 43378913 Hash: 02BA34DC7B13DE144CC77DF42599B711 Accuracy: -m0
Conclusion: CDDA 100%
Signature: 28EC0D5E681A0546EDE1663A529DD96A5038863C
FILE: 06 Natural World.flac
Size: 42633971 Hash: 49E18604C193A1DA382CA9D6374683B6 Accuracy: -m0
Conclusion: CDDA 100%
Signature: 359319A39D94D3544A8F7A25D157F0DFEBA53D72
FILE: 05 Dreams of Earth.flac
Size: 39304343 Hash: C5BE74F3C6D919EE08046717F48CB3E3 Accuracy: -m0
Conclusion: CDDA 100%
Signature: 1F04B2C3B3FD063AD91E2CEBFA7F8A44A5877912
FILE: 04 Extensions of Life.flac
Size: 51041331 Hash: A8E94BC1112615C42B7D00DB448E61C7 Accuracy: -m0
Conclusion: CDDA 100%
Signature: 5CEE6EFF943130A83E1B04E98F33DD3E52E23F06
FILE: 03 Cascade.flac
Size: 38474592 Hash: 05C5CE3FA253B0D830A5AADAE182A9D3 Accuracy: -m0
Conclusion: MPEG 95%
Signature: D3544C78B8E5E523AA0A9E4B2D9324CB7E3222F9
FILE: 02 Oceans.flac
Size: 43258767 Hash: 09B673F7E3D5BD6A999442583019C5D2 Accuracy: -m0
Conclusion: CDDA 100%
Signature: 843AB3334B90B7E11C2C209193155B68947514D9
FILE: 01 Inner Voice.flac
Size: 40180572 Hash: 8073FE01629DE7C747E5DCD061A1852B Accuracy: -m0
Conclusion: CDDA 100%
Signature: 5B6689685AA6D8265AB815C13AC7134C5868DCF9

If you like the topic, please click share to help develop our site.

To download the file disable ad blocking, and reload the page.

disable adblock How to disable ad blocking?

Download by magnet link 456 MB Download Torrent

Login using:

Similar topics



   
Current time is: 25-May 19:06 :: All times are UTC + 3