Paradox Presents: The Age Of Outsiders 2CD
Жанр: Drum&Bass; Drumfunk
Год выпуска диска: 2008
Производитель диска: UK
Аудио кодек: FLAC
Тип рипа: tracks
Битрейт аудио: lossless
Продолжительность: 2:07:49
Трэклист:
Nucleus Mix
1-01 DJ Trax - The Beat Freak
1-02 Macc - Guttural
1-03 Macc - Journeys
1-04 Fracture & Neptune - Colemanism
1-05 Paradox - Aries Maze
1-06 Con.struct - I Feel The Earth Move
1-07 Paradox - Epoch
1-08 Macc - Swallow It
1-09 Sileni - 4D
1-10 DJ Trax - Serenity (Paradox Remix)
DJ Trax Mix
2-01 ASC - Tradewind
2-02 Aperture - Losing The Point
2-03 DJ Trax - The Drummer Is The Heartbeat
2-04 Aperture - Gift Of Life
2-05 Paradox - Breakdown
2-06 Insight - Mystical Aura
2-07 Macc - Be Like Water
2-08 Deeperheightz - The Blackness
2-09 Antidote & Panopticon - Peripheral Thinking (VIP Mix)
2-10 Macc - No Turning Back
2-11 DJ Trax & Macc - Drago's Path
2-12 Spotless - With The Friend The Shadow
Доп. информация: have phun!

EAC Log для CD1

Exact Audio Copy V0.99 prebeta 1 from 25. May 2007
Отчёт EAC об извлечении, выполненном 12. июля 2008, 19:19
Various / Paradox presents: The Age Of Outsiders CD1: Nucleus Mix
Дисковод: MATSHITADVD-RAM UJ-850S Adapter: 3 ID: 0
Режим чтения : Достоверность
Использование точного потока : Да
Отключение кэша аудио : Нет
Использование указателей C2 : Нет
Коррекция смещения при чтении : 102
Способность читать области Lead-in и Lead-out : Нет
Заполнение пропущенных сэмплов тишиной : Да
Удаление блоков с тишиной в начале и конце : Нет
Интерфейс : Встроенный Win32-интерфейс для Win NT/2000
Обработка зазоров : Добавлено к предыдущему треку
Выходной формат : Пользовательский кодировщик
Выбранный битрейт : 1024 kBit/s
Качество : Высокий
Добавление ID3-тэга : Нет
Утилита сжатия : E:\Program Files\FLAC\flac.exe
Дополнительные параметры : -V -8 -T "artist=%a" -T "title=%t" -T "album=%g" -T "date=%y" -T "tracknumber=%n" -T "genre=%m" %s
TOC извлечённого CD
Трек | Старт | Длительность | Начальный сектор | Конечный сектор
---------------------------------------------------------------------
1 | 0:00.00 | 7:03.33 | 0 | 31757
2 | 7:03.33 | 5:45.36 | 31758 | 57668
3 | 12:48.69 | 4:27.72 | 57669 | 77765
4 | 17:16.66 | 5:42.58 | 77766 | 103473
5 | 22:59.49 | 7:15.50 | 103474 | 136148
6 | 30:15.24 | 5:27.00 | 136149 | 160673
7 | 35:42.24 | 4:59.43 | 160674 | 183141
8 | 40:41.67 | 4:28.14 | 183142 | 203255
9 | 45:10.06 | 5:54.72 | 203256 | 229877
10 | 51:05.03 | 15:50.65 | 229878 | 301192
Трек 1
Имя файла C:\_Outsiders\01. The Beat Freak - The Beat Freak.wav
Длина предзазора 0:00:02.00
Пиковый уровень 87.5 %
Качество трека 100.0 %
CRC теста 731EE1C8
CRC копии 731EE1C8
Копирование... OK
Трек 2
Имя файла C:\_Outsiders\02. Guttural - Guttural.wav
Пиковый уровень 100.0 %
Качество трека 100.0 %
CRC теста 305420C1
CRC копии 305420C1
Копирование... OK
Трек 3
Имя файла C:\_Outsiders\03. Journeys - Journeys.wav
Пиковый уровень 88.2 %
Качество трека 99.9 %
CRC теста BBA64590
CRC копии BBA64590
Копирование... OK
Трек 4
Имя файла C:\_Outsiders\04. Colemanism - Colemanism.wav
Пиковый уровень 91.7 %
Качество трека 100.0 %
CRC теста EB94F206
CRC копии EB94F206
Копирование... OK
Трек 5
Имя файла C:\_Outsiders\05. Aries Maze - Aries Maze.wav
Пиковый уровень 91.5 %
Качество трека 99.9 %
CRC теста 89A3C0B5
CRC копии 89A3C0B5
Копирование... OK
Трек 6
Имя файла C:\_Outsiders\06. I Feel The Earth Move - I Feel The Earth Move.wav
Пиковый уровень 84.9 %
Качество трека 100.0 %
CRC теста 1BE0A679
CRC копии 1BE0A679
Копирование... OK
Трек 7
Имя файла C:\_Outsiders\07. Epoch - Epoch.wav
Пиковый уровень 93.3 %
Качество трека 100.0 %
CRC теста 839DBF52
CRC копии 839DBF52
Копирование... OK
Трек 8
Имя файла C:\_Outsiders\08. Swallow It - Swallow It.wav
Пиковый уровень 100.0 %
Качество трека 100.0 %
CRC теста 8E8CEF5C
CRC копии 8E8CEF5C
Копирование... OK
Трек 9
Имя файла C:\_Outsiders\09. 4D - 4D.wav
Пиковый уровень 81.8 %
Качество трека 99.9 %
CRC теста 80BA9CEB
CRC копии 80BA9CEB
Копирование... OK
Трек 10
Имя файла C:\_Outsiders\10. Serenity [Paradox remix] - Serenity [Paradox remix].wav
Пиковый уровень 90.6 %
Качество трека 100.0 %
CRC теста 4A83EB65
CRC копии 4A83EB65
Копирование... OK
Ошибок не произошло
Конец отчёта

EAC Log для CD2

Exact Audio Copy V0.99 prebeta 1 from 25. May 2007
Отчёт EAC об извлечении, выполненном 15. июля 2008, 22:50
Various / Paradox presents: The Age Of Outsiders CD2: Dj Trax Mix
Дисковод: MATSHITADVD-RAM UJ-850S Adapter: 3 ID: 0
Режим чтения : Достоверность
Использование точного потока : Да
Отключение кэша аудио : Нет
Использование указателей C2 : Нет
Коррекция смещения при чтении : 102
Способность читать области Lead-in и Lead-out : Нет
Заполнение пропущенных сэмплов тишиной : Да
Удаление блоков с тишиной в начале и конце : Нет
Интерфейс : Встроенный Win32-интерфейс для Win NT/2000
Обработка зазоров : Добавлено к предыдущему треку
Выходной формат : Пользовательский кодировщик
Выбранный битрейт : 1024 kBit/s
Качество : Высокий
Добавление ID3-тэга : Нет
Утилита сжатия : E:\Program Files\FLAC\flac.exe
Дополнительные параметры : -V -8 -T "artist=%a" -T "title=%t" -T "album=%g" -T "date=%y" -T "tracknumber=%n" -T "genre=%m" %s
TOC извлечённого CD
Трек | Старт | Длительность | Начальный сектор | Конечный сектор
---------------------------------------------------------------------
1 | 0:00.00 | 5:47.52 | 0 | 26076
2 | 5:47.52 | 5:48.50 | 26077 | 52226
3 | 11:36.27 | 5:37.71 | 52227 | 77572
4 | 17:14.23 | 6:21.49 | 77573 | 106196
5 | 23:35.72 | 3:27.33 | 106197 | 121754
6 | 27:03.30 | 5:51.27 | 121755 | 148106
7 | 32:54.57 | 5:52.45 | 148107 | 174551
8 | 38:47.27 | 3:28.71 | 174552 | 190222
9 | 42:16.23 | 4:01.26 | 190223 | 208323
10 | 46:17.49 | 5:17.63 | 208324 | 232161
11 | 51:35.37 | 4:13.02 | 232162 | 251138
12 | 55:48.39 | 5:05.15 | 251139 | 274028
Трек 1
Имя файла C:\_Outsiders\CD2\01. Tradewind - Tradewind.wav
Длина предзазора 0:00:02.00
Пиковый уровень 77.9 %
Качество трека 99.9 %
CRC теста 66012384
CRC копии 66012384
Копирование... OK
Трек 2
Имя файла C:\_Outsiders\CD2\02. Losing The Point - Losing The Point.wav
Пиковый уровень 85.6 %
Качество трека 99.9 %
CRC теста 4F212D2F
CRC копии 4F212D2F
Копирование... OK
Трек 3
Имя файла C:\_Outsiders\CD2\03. The Drummer Is The Heartbeat - The Drummer Is The Heartbeat.wav
Пиковый уровень 99.5 %
Качество трека 100.0 %
CRC теста 7B95EF6E
CRC копии 7B95EF6E
Копирование... OK
Трек 4
Имя файла C:\_Outsiders\CD2\04. Gift Of Life - Gift Of Life.wav
Пиковый уровень 82.4 %
Качество трека 100.0 %
CRC теста ADB0607F
CRC копии ADB0607F
Копирование... OK
Трек 5
Имя файла C:\_Outsiders\CD2\05. Breakdown - Breakdown.wav
Пиковый уровень 84.2 %
Качество трека 100.0 %
CRC теста 13455142
CRC копии 13455142
Копирование... OK
Трек 6
Имя файла C:\_Outsiders\CD2\06. Mystical Aura - Mystical Aura.wav
Пиковый уровень 99.5 %
Качество трека 100.0 %
CRC теста 5F3440C6
CRC копии 5F3440C6
Копирование... OK
Трек 7
Имя файла C:\_Outsiders\CD2\07. Be Like Water - Be Like Water.wav
Пиковый уровень 77.2 %
Качество трека 100.0 %
CRC теста C7EA54AA
CRC копии C7EA54AA
Копирование... OK
Трек 8
Имя файла C:\_Outsiders\CD2\08. The Blackness - The Blackness.wav
Пиковый уровень 100.0 %
Качество трека 100.0 %
CRC теста 8E38580A
CRC копии 8E38580A
Копирование... OK
Трек 9
Имя файла C:\_Outsiders\CD2\09. Peripheral Thinking - Peripheral Thinking.wav
Пиковый уровень 100.0 %
Качество трека 100.0 %
CRC теста 9E808280
CRC копии 9E808280
Копирование... OK
Трек 10
Имя файла C:\_Outsiders\CD2\10. No Turning Back - No Turning Back.wav
Пиковый уровень 100.0 %
Качество трека 100.0 %
CRC теста B7190590
CRC копии B7190590
Копирование... OK
Трек 11
Имя файла C:\_Outsiders\CD2\11. Drago's Path - Drago's Path.wav
Пиковый уровень 99.5 %
Качество трека 99.9 %
CRC теста 794EA9CF
CRC копии 794EA9CF
Копирование... OK
Трек 12
Имя файла C:\_Outsiders\CD2\12. With The Friend The Shadow - With The Friend The Shadow.wav
Пиковый уровень 88.7 %
Качество трека 99.9 %
CRC теста 52958FC8
CRC копии 52958FC8
Копирование... OK
Ошибок не произошло
Конец отчёта

If you like the topic, please click share to help develop our site.

To download the file disable ad blocking, and reload the page.

disable adblock How to disable ad blocking?

Download by magnet link 805 MB Download Torrent

Login using:

Similar topics

VA - RAM Drum & Bass Annual 2019 (2018) MP3
 644 MB   6 | 0   16-Dec-18 08:30   123
(Drum & Bass) Mefjus - Manifest - 2018, MP3 (tracks), 320 kbps
 161 MB   0 | 0   26-Apr-18 12:35   120


   
Current time is: 25-May 19:09 :: All times are UTC + 3