Doc Scott - Hidden rooms vol.3
Лэйбл: Certificate 18
Каталог#: CERT18CD012
Жанр: Drum n Bass
Дата выпуска диска: 6 авг 2001
Производитель диска: UK
Аудио кодек: FLAC
Тип рипа: image+.cue
Битрейт аудио: lossless (CL5)
Продолжительность: 01:12:23 + 01:08:16

Трэклист:
CD01>Unmixed
101 Klute - Phone Call (Matrix Remix) (06:52)
102 Lexis - Destination Unknown (06:03)
103 Klute - We R The Ones (06:20)
104 Teebee - Space Age (Teebee Remix) (06:54)
105 Teebee - Black Rain (05:57)
106 Polar - Skydiver (06:04)
107 Polar - Secret World (05:36)
108 Mainline - Song 4 Eva (06:28)
109 Lexis - Set Me Free (04:11)
110 Klute & The Green Man - Lost (06:04)
111 Polar - Innocent (06:05)
112 Lexis - Groove Therapy (Photek Remix) (05:44)

Отчёт EAC

Exact Audio Copy V0.99 prebeta 4 from 23. January 2008
EAC extraction logfile from 2. December 2008, 11:04
Various / Hidden rooms vol. 3
Used drive : PIONEER DVD-RW DVR-110D Adapter: 0 ID: 1
Read mode : Secure
Utilize accurate stream : Yes
Defeat audio cache : Yes
Make use of C2 pointers : No
Read offset correction : 48
Overread into Lead-In and Lead-Out : No
Fill up missing offset samples with silence : Yes
Delete leading and trailing silent blocks : No
Null samples used in CRC calculations : Yes
Used interface : Installed external ASPI interface
Used output format : User Defined Encoder
Selected bitrate : 128 kBit/s
Quality : High
Add ID3 tag : No
Command line compressor : C:\Program Files\FLAC\flac.exe
Additional command line options : -T "artist=%a" -T "title=%t" -T "album=%g" -T "date=%y" -T "tracknumber=%n" -T "genre=%m" -5 %s
TOC of the extracted CD
Track | Start | Length | Start sector | End sector
---------------------------------------------------------
1 | 0:00.00 | 6:52.37 | 0 | 30936
2 | 6:52.37 | 6:03.40 | 30937 | 58201
3 | 12:56.02 | 6:20.20 | 58202 | 86721
4 | 19:16.22 | 6:54.13 | 86722 | 117784
5 | 26:10.35 | 5:57.42 | 117785 | 144601
6 | 32:08.02 | 6:04.05 | 144602 | 171906
7 | 38:12.07 | 5:36.48 | 171907 | 197154
8 | 43:48.55 | 6:28.72 | 197155 | 226326
9 | 50:17.52 | 4:11.28 | 226327 | 245179
10 | 54:29.05 | 6:04.05 | 245180 | 272484
11 | 60:33.10 | 6:05.32 | 272485 | 299891
12 | 66:38.42 | 5:44.45 | 299892 | 325736
Range status and errors
Selected range
Filename D:\temp\__rip\Various - Hidden rooms vol. 3.wav
Peak level 98.8 %
Range quality 100.0 %
Copy CRC 5006D60F
Copy OK
No errors occurred
End of status report
CD02>Doc Scott's Parental Guidance mix
201 Klute - We Believe (04:25)
202 Teebee - Light Between Two Moons (04:14)
203 Polar - Optifunk (04:35)
204 Mainline - Second Phaze (03:32)
205 Mainline - Dakota (04:04)
206 Teebee - Future War (04:35)
207 Klute - X-Mas (06:51)
208 Polar - Mass Mysterior (05:18)
209 Polar - Secret World (04:35)
210 Klute - T.D.C.C. (03:20)
211 Teebee - Xogenesis (05:07)
212 Klute - Out Of Silence (05:06)
213 Polar - Breaking Thru (04:26)
214 Klute - Hang Up (03:14)
215 Studio Pressure - Relics (Digital's Natural Mystic Mix) (04:47)

Отчёт EAC

Exact Audio Copy V0.99 prebeta 4 from 23. January 2008
EAC extraction logfile from 2. December 2008, 11:38
Various / Hidden rooms vol. 3. Parental guidance mix
Used drive : PIONEER DVD-RW DVR-110D Adapter: 0 ID: 1
Read mode : Secure
Utilize accurate stream : Yes
Defeat audio cache : Yes
Make use of C2 pointers : No
Read offset correction : 48
Overread into Lead-In and Lead-Out : No
Fill up missing offset samples with silence : Yes
Delete leading and trailing silent blocks : No
Null samples used in CRC calculations : Yes
Used interface : Installed external ASPI interface
Used output format : User Defined Encoder
Selected bitrate : 128 kBit/s
Quality : High
Add ID3 tag : No
Command line compressor : C:\Program Files\FLAC\flac.exe
Additional command line options : -T "artist=%a" -T "title=%t" -T "album=%g" -T "date=%y" -T "tracknumber=%n" -T "genre=%m" -5 %s
TOC of the extracted CD
Track | Start | Length | Start sector | End sector
---------------------------------------------------------
1 | 0:00.00 | 4:25.65 | 0 | 19939
2 | 4:25.65 | 4:14.67 | 19940 | 39056
3 | 8:40.57 | 4:35.40 | 39057 | 59721
4 | 13:16.22 | 3:32.23 | 59722 | 75644
5 | 16:48.45 | 4:04.02 | 75645 | 93946
6 | 20:52.47 | 4:35.55 | 93947 | 114626
7 | 25:28.27 | 6:51.05 | 114627 | 145456
8 | 32:19.32 | 5:18.03 | 145457 | 169309
9 | 37:37.35 | 4:35.42 | 169310 | 189976
10 | 42:13.02 | 3:20.33 | 189977 | 205009
11 | 45:33.35 | 5:07.72 | 205010 | 228106
12 | 50:41.32 | 5:06.63 | 228107 | 251119
13 | 55:48.20 | 4:26.07 | 251120 | 271076
14 | 60:14.27 | 3:14.73 | 271077 | 285699
15 | 63:29.25 | 4:47.37 | 285700 | 307261
Range status and errors
Selected range
Filename D:\temp\__rip\Various - Hidden rooms vol. 3. Parental guidance mix.wav
Peak level 98.3 %
Range quality 100.0 %
Copy CRC C254DCFA
Copy OK
No errors occurred
End of status report

If you like the topic, please click share to help develop our site.

To download the file disable ad blocking, and reload the page.

disable adblock How to disable ad blocking?

Download by magnet link 936 MB Download Torrent

Login using:

Similar topics



   
Current time is: 27-May 02:31 :: All times are UTC + 3