Ed Rush & Optical - The Creeps
Жанр: Drum n Bass
Год выпуска диска: 2001
Производитель диска: UK
Аудио кодек: FLAC
Тип рипа: tracks+.cue
Битрейт аудио: lossless
Продолжительность: CD 1 - 1:08:07 | CD 2 - 1:05:12
Трэклист:
CD 1
1.01 Ed Rush & Optical - Resurrection (5:25)
1.02 Ed Rush & Optical - The Creeps (5:49)
1.03 Optical & Ryme Tyme - White Lightning (6:01)
1.04 Ed Rush & Optical - Check-Out Time (6:41)
1.05 Ed Rush & Optical - Pacman (5:37)
1.06 Ed Rush & Optical - Reach Out (5:57)
1.07 Ed Rush & Optical - Syringe (6:45)
1.08 Ed Rush & Optical - Rock Tha House (6:17)
1.09 Ed Rush & Optical - Greed (6:34)
1.10 Ed Rush & Optical - Flightpath (6:51)
1.11 Ed Rush & Optical - Fastlane (6:07)
CD 2
2.01 Ed Rush & Optical - The Creeps (4:23)
2.02 Ed Rush & Optical - Flightpath (4:59)
2.03 Ed Rush & Optical - Resurrection (4:26)
2.04 Ed Rush & Optica -l Reach Out (3:53)
2.05 Ed Rush & Optical - Syringe (5:10)
2.06 Ed Rush & Optical - Check-Out Time (4:49)
2.07 Optical & Ryme Tyme - White Lightning (4:43)
2.08 Ed Rush & Optical - Pacman (4:50)
2.09 Ed Rush & Optical - Greed (5:11)
2.10 Ed Rush & Optical - Bleep Bleep (3:53)
2.11 Ed Rush & Optical - Kerb Crawler (7:13)
2.12 Ed Rush & Optical - Fastlane (6:06)
2.13 Ed Rush & Optical - Rock Tha House (5:32)

EAC log cd 1

EAC extraction logfile from 14. April 2007, 13:11 for CD
Ed Rush & Optical / The Creeps [VRSCD 003] (CD1)
Used drive : BENQ DVD DD DW1640 Adapter: 1 ID: 0
Read mode : Secure with NO C2, accurate stream, disable cache
Read offset correction : 618
Overread into Lead-In and Lead-Out : No
Used output format : C:\Program Files\Exact Audio Copy\flac.exe (User Defined Encoder)
224 kBit/s
Additional command line options : -8 -A tukey(0.25) -A gauss(0.1875) -b 4096 -V -T "artist=%a" -T "title=%t" -T "album=%g" -T "date=%y" -T "tracknumber=%n" -T "genre=%m" %s --sector-align
Other options :
Fill up missing offset samples with silence : Yes
Delete leading and trailing silent blocks : No
Native Win32 interface for Win NT & 2000
Track 1
Filename C:\CD1\01 - Resurrection.wav
Pre-gap length 0:00:02.00
Peak level 100.0 %
Track quality 100.0 %
Test CRC D53346BF
Copy CRC D53346BF
Copy OK
Track 2
Filename C:\CD1\02 - The Creeps.wav
Peak level 100.0 %
Track quality 100.0 %
Test CRC CA745BB7
Copy CRC CA745BB7
Copy OK
Track 3
Filename C:\CD1\03 - White Lightning.wav
Peak level 100.0 %
Track quality 100.0 %
Test CRC 0DEF44F2
Copy CRC 0DEF44F2
Copy OK
Track 4
Filename C:\CD1\04 - Check-Out Time.wav
Peak level 100.0 %
Track quality 100.0 %
Test CRC F0A35CA9
Copy CRC F0A35CA9
Copy OK
Track 5
Filename C:\CD1\05 - Pacman.wav
Peak level 100.0 %
Track quality 100.0 %
Test CRC 014E6B78
Copy CRC 014E6B78
Copy OK
Track 6
Filename C:\CD1\06 - Reach Out.wav
Peak level 100.0 %
Track quality 100.0 %
Test CRC 22B81FE8
Copy CRC 22B81FE8
Copy OK
Track 7
Filename C:\CD1\07 - Syringe.wav
Peak level 100.0 %
Track quality 100.0 %
Test CRC CFE8DCEF
Copy CRC CFE8DCEF
Copy OK
Track 8
Filename C:\CD1\08 - Rock Tha House.wav
Peak level 100.0 %
Track quality 100.0 %
Test CRC E9596680
Copy CRC E9596680
Copy OK
Track 9
Filename C:\CD1\09 - Greed.wav
Peak level 100.0 %
Track quality 100.0 %
Test CRC 7AAC2848
Copy CRC 7AAC2848
Copy OK
Track 10
Filename C:\CD1\10 - Flightpath.wav
Peak level 100.0 %
Track quality 100.0 %
Test CRC 46EB700C
Copy CRC 46EB700C
Copy OK
Track 11
Filename C:\CD1\11 - Fastlane.wav
Peak level 100.0 %
Track quality 99.9 %
Test CRC 5545360E
Copy CRC 5545360E
Copy OK
No errors occured
End of status report

EAC log cd 2

EAC extraction logfile from 14. April 2007, 13:30 for CD
Ed Rush & Optical / The Creeps [VRSCD 003] (CD2) (Mixed by Ed Rush & Optical)
Used drive : BENQ DVD DD DW1640 Adapter: 1 ID: 0
Read mode : Secure with NO C2, accurate stream, disable cache
Read offset correction : 618
Overread into Lead-In and Lead-Out : No
Used output format : C:\Program Files\Exact Audio Copy\flac.exe (User Defined Encoder)
224 kBit/s
Additional command line options : -8 -A tukey(0.25) -A gauss(0.1875) -b 4096 -V -T "artist=%a" -T "title=%t" -T "album=%g" -T "date=%y" -T "tracknumber=%n" -T "genre=%m" %s --sector-align
Other options :
Fill up missing offset samples with silence : Yes
Delete leading and trailing silent blocks : No
Native Win32 interface for Win NT & 2000
Track 1
Filename C:\CD2\01 - The Creeps.wav
Pre-gap length 0:00:02.00
Peak level 100.0 %
Track quality 100.0 %
Test CRC 54A49C5E
Copy CRC 54A49C5E
Copy OK
Track 2
Filename C:\CD2\02 - Flightpath.wav
Peak level 100.0 %
Track quality 99.9 %
Test CRC B44AE407
Copy CRC B44AE407
Copy OK
Track 3
Filename C:\CD2\03 - Resurrection.wav
Peak level 100.0 %
Track quality 100.0 %
Test CRC 65EDA7D2
Copy CRC 65EDA7D2
Copy OK
Track 4
Filename C:\CD2\04 - Reach Out.wav
Peak level 100.0 %
Track quality 100.0 %
Test CRC 4479532D
Copy CRC 4479532D
Copy OK
Track 5
Filename C:\CD2\05 - Syringe.wav
Peak level 100.0 %
Track quality 100.0 %
Test CRC 6864C0E7
Copy CRC 6864C0E7
Copy OK
Track 6
Filename C:\CD2\06 - Check-Out Time.wav
Peak level 100.0 %
Track quality 100.0 %
Test CRC 3447AFD8
Copy CRC 3447AFD8
Copy OK
Track 7
Filename C:\CD2\07 - White Lightning.wav
Peak level 100.0 %
Track quality 100.0 %
Test CRC F9B266BC
Copy CRC F9B266BC
Copy OK
Track 8
Filename C:\CD2\08 - Pacman.wav
Peak level 100.0 %
Track quality 100.0 %
Test CRC 072B9D95
Copy CRC 072B9D95
Copy OK
Track 9
Filename C:\CD2\09 - Greed.wav
Peak level 100.0 %
Track quality 100.0 %
Test CRC 3C00FF8F
Copy CRC 3C00FF8F
Copy OK
Track 10
Filename C:\CD2\10 - Bleep Bleep.wav
Peak level 100.0 %
Track quality 100.0 %
Test CRC 86BBCA1D
Copy CRC 86BBCA1D
Copy OK
Track 11
Filename C:\CD2\11 - Kerb Crawler.wav
Peak level 100.0 %
Track quality 99.9 %
Test CRC B5739DB6
Copy CRC B5739DB6
Copy OK
Track 12
Filename C:\CD2\12 - Fastlane.wav
Peak level 100.0 %
Track quality 100.0 %
Test CRC 82CDFFB6
Copy CRC 82CDFFB6
Copy OK
Track 13
Filename C:\CD2\13 - Rock Tha House.wav
Peak level 99.9 %
Track quality 100.0 %
Test CRC 2A3A7764
Copy CRC 2A3A7764
Copy OK
No errors occured
End of status report

If you like the topic, please click share to help develop our site.

To download the file disable ad blocking, and reload the page.

disable adblock How to disable ad blocking?

Download by magnet link 959 MB Download Torrent

Login using:

Similar topics

VA - RAM Drum & Bass Annual 2019 (2018) MP3
 644 MB   6 | 0   16-Dec-18 08:30   123
(Drum & Bass) Mefjus - Manifest - 2018, MP3 (tracks), 320 kbps
 161 MB   0 | 0   26-Apr-18 12:35   120


   
Current time is: 25-May 19:28 :: All times are UTC + 3