Путешествие времени | Voyage of Time: Life's Journey«From so simple a beginning»
Год выпуска: 2016
Страна: Франция, Германия, США
Жанр: документальный, фэнтези, драма
Продолжительность: 01:28:41
Перевод 1: Профессиональный (дублированный) Кинопремьера HD*
Перевод 2: Профессиональный (дублированный) iTunes
Русские субтитры: нет
Оригинальная аудиодорожка: нет
-
Режиссер: Терренс Малик / Terrence Malick
Актёры: Кейт Бланшетт (голос), Джамал Кавил, Мэйша Диатта, Ягази Эмези, Дэрил Джеймс Харрис II, Себастьян Джексон, Абрахам Косгей, Руна Люсьенн, Тео Бонгани Ндьяльване, Жежуан Плэр
-
Описание: Невероятное путешествие в прошлое нашей планеты. Фильм, пропитанный энергией самой природы, сочетает в себе новаторские спецэффекты и удивительные кадры, снятые в разных уголках земного шара в попытках зафиксировать то, что живет веками и неподвластно времени. История рождения Земли. Движения звезд и континентов. Древние вулканы. Рождение рыб, лесов, динозавров и человека с его страстным желанием дотянуться до всего. Это подлинный гимн природе, жизни и Вселенной!

*Собственная запись со спутника Eutelsat 36A/36B (36°E) | Кинопремьера HD (эфир 05.06.2017г.)
Тип релиза: WEB-DL 1080p
Контейнер: MKV
Видео: MPEG-4 AVC / NTSC 16:9 / 1920x1080 (1,78:1) / 5120 kbps / 24,000 fps / 0.103 bit/pixel / [email protected]
Аудио 1: Russian | Dolby Digital Audio / 5.1 Ch / 48 kHz / 448 kbps / 16 bit | DUB | Кинопремьера HD*
Аудио 2: Russian | AAC-LC Audio / 2.0 Ch / 48 kHz / 160 kbps / 24 bit | DUB | iTunes
Навигация по главам: есть

MediaInfo

Общее
Уникальный идентификатор                 : 203535642725096578897675274647473866985 (0x991F89F5D67794429C6AA198E325C8E9)
Полное имя                               : F:\Voyage of Time & Life's Journey 2016 1080p WEB-DL MPEG4 DD5.1.mkv
Формат                                   : Matroska
Версия формата                           : Version 4 / Version 2
Размер файла                             : 3,51 Гбайт
Продолжительность                        : 1 ч. 28 м.
Общий поток                              : 5669 Кбит/сек
Название фильма                          : Release for ******** © flaSI-I
Дата кодирования                         : UTC 2017-06-06 19:52:43
Программа кодирования                    : mkvmerge v12.0.0 ('Trust / Lust') 64bit
Библиотека кодирования                   : libebml v1.3.4 + libmatroska v1.4.5
Видео
Идентификатор                            : 1
Формат                                   : AVC
Формат/Информация                        : Advanced Video Codec
Профиль формата                          : [email protected]
Параметр CABAC формата                   : Да
Параметр ReFrames формата                : 4 кадра
Идентификатор кодека                     : V_MPEG4/ISO/AVC
Продолжительность                        : 1 ч. 28 м.
Битрейт                                  : 5120 Кбит/сек
Ширина                                   : 1920 пикселей
Высота                                   : 1080 пикселей
Соотношение сторон                       : 16:9
Режим частоты кадров                     : Постоянный
Частота кадров                           : 24,000 кадра/сек
Цветовое пространство                    : YUV
Субдискретизация насыщенности            : 4:2:0
Битовая глубина                          : 8 бит
Тип развёртки                            : Прогрессивная
Бит/(Пиксели*Кадры)                      : 0.103
Размер потока                            : 3,17 Гбайт (90%)
Язык                                     : English
Default                                  : Да
Forced                                   : Нет
Цветовой диапазон                        : Limited
Основные цвета                           : BT.709
Характеристики трансфера                 : BT.709
Коэффициенты матрицы                     : BT.709
Аудио #1
Идентификатор                            : 2
Формат                                   : AC-3
Формат/Информация                        : Audio Coding 3
Параметр Endianness формата              : Big
Идентификатор кодека                     : A_AC3
Продолжительность                        : 1 ч. 28 м.
Вид битрейта                             : Постоянный
Битрейт                                  : 448 Кбит/сек
Каналы                                   : 6 каналов
Расположение каналов                     : Front: L C R, Side: L R, LFE
Частота                                  : 48,0 КГц
Частота кадров                           : 31,250 кадров/сек (1536 spf)
Битовая глубина                          : 16 бит
Метод сжатия                             : С потерями
Размер потока                            : 284 Мбайт (8%)
Заголовок                                : DUB | Кинопремьера HD
Язык                                     : Russian
ServiceKind/String                       : Complete Main
Default                                  : Да
Forced                                   : Нет
Аудио #2
Идентификатор                            : 3
Формат                                   : AAC
Формат/Информация                        : Advanced Audio Codec
Профиль формата                          : LC
Идентификатор кодека                     : A_AAC
Продолжительность                        : 1 ч. 28 м.
Битрейт                                  : 99,2 Кбит/сек
Каналы                                   : 2 канала
Расположение каналов                     : Front: L R
Частота                                  : 48,0 КГц
Частота кадров                           : 46,875 кадров/сек (1024 spf)
Метод сжатия                             : С потерями
Размер потока                            : 62,9 Мбайт (2%)
Заголовок                                : DUB | iTunes
Язык                                     : Russian
Default                                  : Нет
Forced                                   : Нет
Меню
00:00:00.000                             : en:1
00:06:28.250                             : en:2
00:11:53.708                             : en:3
00:16:44.291                             : en:4
00:22:24.291                             : en:5
00:29:42.832                             : en:6
00:35:17.040                             : en:7
00:42:21.165                             : en:8
00:48:30.040                             : en:9
00:55:02.040                             : en:10
00:59:43.748                             : en:11
01:06:16.039                             : en:12
01:12:52.414                             : en:13
01:16:37.205                             : en:14

Скриншоты

-



If you like the topic, please click share to help develop our site.

To download the file disable ad blocking, and reload the page.

disable adblock How to disable ad blocking?

Download by magnet link 3.51 GB Download Torrent

Login using:

Similar topics



   
Current time is: 19-Jul 13:50 :: All times are UTC + 3