Совы. По ту сторону тайныSuper-Powered Owls Год выпуска: 2015
Страна: Великобритания
Жанр: документальный
Продолжительность: 00:51:57
Перевод: Одноголосый (закадровый)
Субтитры: нет
Описание: Ни с одной птицей на свете не связано столько тайн и легенд, как с совой. Большинство народных представлений о сове основано на заблуждениях. Нередко поверья, касающиеся этой птицы, просто противоречат друг другу. Но с древнейших времен ее окутывает мистическая аура. Отчасти это объясняется тем, что сова ночная птица, а ночь люди всегда воспринимали как время загадок и тайн. Они двигаются бесшумно, как призраки. Они могут поймать свою жертву молниеносно напав, даже не глядя на нее. Они видят даже в абсолютной темноте. Таинственные совы...
Доп. информация: Авторство релиза - skorpionN.
Тип релиза: HDTVRip 720p
Контейнер: MKV
Видео: MPEG-4 AVC, 1280x720 (16:9), 25 fps, 4000 Kbps
Аудио : Russian AC-3, 2.0 ch, 48 KHz, 192 Kbps
Сэмпл

MediaInfo

General
Unique ID : 178354011560961053026250014530957625678 (0x862DBBB0280D8B20B76E4663E2B2494E)
Complete name : C:\Downloads\BBC_Natural World_Super Powered Owls_720p.mkv
Format : Matroska
Format version : Version 4 / Version 2
File size : 1.52 GiB
Duration : 51 min 56 s
Overall bit rate mode : Variable
Overall bit rate : 4 179 kb/s
Encoded date : UTC 2016-12-28 19:09:41
Writing application : mkvmerge v7.3.0 ('Nouages') 64bit built on Oct 22 2014 18:53:34
Writing library : libebml v1.3.0 + libmatroska v1.4.1
Video
ID : 1
Format : AVC
Format/Info : Advanced Video Codec
Format profile : [email protected]
Format settings, CABAC : Yes
Format settings, ReFrames : 3 frames
Codec ID : V_MPEG4/ISO/AVC
Duration : 51 min 56 s
Bit rate mode : Variable
Bit rate : 4 000 kb/s
Maximum bit rate : 8 000 kb/s
Width : 1 280 pixels
Height : 720 pixels
Display aspect ratio : 16:9
Frame rate mode : Constant
Frame rate : 25.000 FPS
Standard : NTSC
Color space : YUV
Chroma subsampling : 4:2:0
Bit depth : 8 bits
Scan type : Progressive
Bits/(Pixel*Frame) : 0.174
Stream size : 1.45 GiB (95%)
Writing library : x264 core 114
Encoding settings : cabac=1 / ref=3 / deblock=1:0:0 / analyse=0x3:0x113 / me=hex / subme=7 / psy=1 / psy_rd=1.00:0.00 / mixed_ref=1 / me_range=16 / chroma_me=1 / trellis=1 / 8x8dct=1 / cqm=2 / deadzone=21,11 / fast_pskip=1 / chroma_qp_offset=-4 / threads=6 / sliced_threads=0 / slices=1 / nr=0 / decimate=1 / interlaced=0 / constrained_intra=0 / bframes=3 / b_pyramid=0 / b_adapt=1 / b_bias=0 / direct=1 / weightb=1 / open_gop=0 / weightp=2 / keyint=250 / keyint_min=25 / scenecut=40 / intra_refresh=0 / rc_lookahead=40 / rc=2pass / mbtree=1 / bitrate=4000 / ratetol=1.0 / qcomp=0.60 / qpmin=5 / qpmax=69 / qpstep=4 / cplxblur=20.0 / qblur=0.5 / vbv_maxrate=8000 / vbv_bufsize=7995 / nal_hrd=vbr / ip_ratio=1.40 / aq=1:1.00
Default : Yes
Forced : No
Color range : Limited
Color primaries : BT.709
Transfer characteristics : BT.709
Matrix coefficients : BT.709
Audio
ID : 2
Format : AC-3
Format/Info : Audio Coding 3
Format settings, Endianness : Big
Codec ID : A_AC3
Duration : 51 min 56 s
Bit rate mode : Constant
Bit rate : 192 kb/s
Channel(s) : 2 channels
Channel positions : Front: L R
Sampling rate : 48.0 kHz
Frame rate : 31.250 FPS (1536 spf)
Bit depth : 16 bits
Compression mode : Lossy
Stream size : 71.3 MiB (5%)
Service kind : Complete Main
Default : Yes
Forced : No

Скриншоты


If you like the topic, please click share to help develop our site.

To download the file disable ad blocking, and reload the page.

disable adblock How to disable ad blocking?

Download by magnet link 1.52 GB Download Torrent

Login using:

Similar topics

Живые воды / Living waters (2015) HDRip [H.264/1080p-LQ] [VO]
 1.9 GB   1 | 1   13-Nov-18 00:40   6


   
Current time is: 27-May 02:33 :: All times are UTC + 3