Мадам Гага
Год выпуска: 2013
Страна: Россия
Студия: rtg production studio
Жанр: флора,фауна
Продолжительность: 00:24:11
Перевод: Не требуется
Режиссер: Сергей Тиханович
Описание: На севере России живет птица, которая прославилась на весь мир. Гагачий пух, благодаря своим свойствам, спасал людей в самых экстремальных условиях. Но люди не осторожно отнеслись к щедрости природы и почти уничтожили беззащитную утку. Только в начале прошлого века на Белом море был создан Кандалакшский заповедник, предназначенный защитить и сохранить гагу обыкновенную. Мы отправляемся на острова Белого моря, где окунемся в мир пернатых и узнаем множество занимательных фактов из жизни гаги и ее соседей.
Тип релиза: HDTV 1080i
Контейнер: MKV
Видео: AVC, PAL, 1920x1080, 16x9, 7765 Кbps, 25fps
Аудио: Русский, MP2, 2Ch, 48KHz, 192kbps

MediaInfo

Общее
Уникальный идентификатор : 206688966849766266899431014611222140881 (0x9B7ED8D7D016176A88A652B2275217D1)
Полное имя : H:\Мадам Гага(RTGHD).mkv
Формат : Matroska
Версия формата : Version 4 / Version 2
Размер файла : 1,35 Гбайт
Продолжительность : 24 м. 11 с.
Общий поток : 7960 Кбит/сек
Дата кодирования : UTC 2017-05-28 14:15:15
Программа кодирования : mkvmerge v8.3.0 ('Over the Horizon') 64bit
Библиотека кодирования : libebml v1.3.1 + libmatroska v1.4.2
Видео
Идентификатор : 1
Формат : AVC
Формат/Информация : Advanced Video Codec
Профиль формата : [email protected]
Параметр CABAC формата : Да
Параметр ReFrames формата : 4 кадра
Идентификатор кодека : V_MPEG4/ISO/AVC
Продолжительность : 24 м. 11 с.
Битрейт : 7765 Кбит/сек
Ширина : 1920 пикселей
Высота : 1080 пикселей
Соотношение сторон : 16:9
Режим частоты кадров : Постоянный
Частота кадров : 25,000 кадров/сек
Цветовое пространство : YUV
Субдискретизация насыщенности : 4:2:0
Битовая глубина : 8 бит
Тип развёртки : Чересстрочная
Метод сохранения типа развёртки : Раздельные поля
Порядок развёртки : Верхнее поле первое
Бит/(Пиксели*Кадры) : 0.150
Размер потока : 1,31 Гбайт (98%)
Default : Нет
Forced : Нет
Цветовой диапазон : Limited
Основные цвета : BT.709
Характеристики трансфера : BT.709
Коэффициенты матрицы : BT.709
Аудио
Идентификатор : 2
Формат : MPEG Audio
Версия формата : Version 1
Профиль формата : Layer 2
Идентификатор кодека : A_MPEG/L2
Идентификатор кодека/Подсказка : MP2
Продолжительность : 24 м. 11 с.
Вид битрейта : Постоянный
Битрейт : 192 Кбит/сек
Каналы : 2 канала
Частота : 48,0 КГц
Частота кадров : 41,667 кадра/сек (1152 spf)
Метод сжатия : С потерями
Размер потока : 33,2 Мбайт (2%)
Заголовок : Русский
Язык : Russian
Default : Да
Forced : Нет

Скриншоты


If you like the topic, please click share to help develop our site.

To download the file disable ad blocking, and reload the page.

disable adblock How to disable ad blocking?

Download by magnet link 1.35 GB Download Torrent

Login using:

Similar topics

Живые воды / Living waters (2015) HDRip [H.264/1080p-LQ] [VO]
 1.9 GB   1 | 1   13-Nov-18 00:40   6


   
Current time is: 27-May 02:01 :: All times are UTC + 3