Prosper - Broken Door
Жанр: KrautRock
Производитель диска: Germany
Год выпуска диска: 2003
Издатель (лейбл): Prosper
Номер по каталогу: CD 085
Аудио кодек: FLAC
Тип рипа: tracks+.cue
Битрейт аудио: lossless
Продолжительность: 00:39:11
Наличие сканов в содержимом раздачи: да
Трэклист:
01. Beginning
02. Burning In The Sun
03. Broken Door
04. Dance Of An Angel
05. Your Country
06. Birds Of Passage
07. Master's Inspiration
08. Where The Sun Touches The Water

EAC

EAC extraction logfile from 8. September 2007, 10:07 for CD
Prosper / Broken Door
Used drive : HL-DT-STDVD-ROM GDR8163B Adapter: 1 ID: 1
Read mode : Secure with NO C2, accurate stream, disable cache
Read offset correction : 102
Overread into Lead-In and Lead-Out : No
Used output format : C:\AplyRAF\Audio\EAC\flac.exe (User Defined Encoder)
320 kBit/s
Additional command line options : -5 -V -T "ARTIST=%a" -T "TITLE=%t" -T "ALBUM=%g" -T "DATE=%y" -T "TRACKNUMBER=%n" -T "GENRE=%m" -T "COMMENT=EAC Flac 1.1.2 -5" %s
Other options :
Fill up missing offset samples with silence : Yes
Delete leading and trailing silent blocks : No
Native Win32 interface for Win NT & 2000
Track 1
Filename C:\WAV\Ripeos\Prosper - Broken Door (1975) [FLAC]\01 - Beginning.wav
Pre-gap length 0:00:02.00
Peak level 99.9 %
Track quality 100.0 %
Test CRC 12C94071
Copy CRC 12C94071
Copy OK
Track 2
Filename C:\WAV\Ripeos\Prosper - Broken Door (1975) [FLAC]\02 - Burning In The Sun.wav
Peak level 99.9 %
Track quality 100.0 %
Test CRC 56CE9AC9
Copy CRC 56CE9AC9
Copy OK
Track 3
Filename C:\WAV\Ripeos\Prosper - Broken Door (1975) [FLAC]\03 - Broken Door.wav
Pre-gap length 0:00:00.01
Peak level 99.9 %
Track quality 100.0 %
Test CRC 80C25F7D
Copy CRC 80C25F7D
Copy OK
Track 4
Filename C:\WAV\Ripeos\Prosper - Broken Door (1975) [FLAC]\04 - Dance Of An Angel.wav
Peak level 99.9 %
Track quality 100.0 %
Test CRC 859E7FC6
Copy CRC 859E7FC6
Copy OK
Track 5
Filename C:\WAV\Ripeos\Prosper - Broken Door (1975) [FLAC]\05 - Your Country.wav
Peak level 99.9 %
Track quality 100.0 %
Test CRC 9DA76335
Copy CRC 9DA76335
Copy OK
Track 6
Filename C:\WAV\Ripeos\Prosper - Broken Door (1975) [FLAC]\06 - Birds Of Passage.wav
Peak level 99.9 %
Track quality 100.0 %
Test CRC CD4C8092
Copy CRC CD4C8092
Copy OK
Track 7
Filename C:\WAV\Ripeos\Prosper - Broken Door (1975) [FLAC]\07 - Masters Inspiration.wav
Pre-gap length 0:00:00.01
Peak level 99.9 %
Track quality 100.0 %
Test CRC D2E232A3
Copy CRC D2E232A3
Copy OK
Track 8
Filename C:\WAV\Ripeos\Prosper - Broken Door (1975) [FLAC]\08 - Where The Sun Touches The Water.wav
Pre-gap length 0:00:00.01
Peak level 99.9 %
Track quality 100.0 %
Test CRC D1F4A0B8
Copy CRC D1F4A0B8
Copy OK
No errors occured
End of status report

CUE

PERFORMER "Prosper"
TITLE "Broken Door"
FILE "01 - Beginning.wav" WAVE
TRACK 01 AUDIO
TITLE "Beginning"
PERFORMER "Prosper"
INDEX 01 00:00:00
FILE "02 - Burning In The Sun.wav" WAVE
TRACK 02 AUDIO
TITLE "Burning In The Sun"
PERFORMER "Prosper"
INDEX 01 00:00:00
TRACK 03 AUDIO
TITLE "Broken Door"
PERFORMER "Prosper"
INDEX 00 02:04:04
FILE "03 - Broken Door.wav" WAVE
INDEX 01 00:00:00
FILE "04 - Dance Of An Angel.wav" WAVE
TRACK 04 AUDIO
TITLE "Dance Of An Angel"
PERFORMER "Prosper"
INDEX 01 00:00:00
FILE "05 - Your Country.wav" WAVE
TRACK 05 AUDIO
TITLE "Your Country"
PERFORMER "Prosper"
INDEX 01 00:00:00
FILE "06 - Birds Of Passage.wav" WAVE
TRACK 06 AUDIO
TITLE "Birds Of Passage"
PERFORMER "Prosper"
INDEX 01 00:00:00
TRACK 07 AUDIO
TITLE "Masters Inspiration"
PERFORMER "Prosper"
INDEX 00 04:56:04
FILE "07 - Masterґs Inspiration.wav" WAVE
INDEX 01 00:00:00
TRACK 08 AUDIO
TITLE "Where The Sun Touches The Water"
PERFORMER "Prosper"
INDEX 00 01:32:04
FILE "Prosper - Broken Door (1975) [FLAC]\08 - Where The Sun Touches The Water.wav" WAVE
INDEX 01 00:00:00
Доп. информация:

Состав

Evert Brettschneider (guitars), Matthias Geisen (bass)
Friedhelm Misiejuk (drums, percussion)
Fritz A. Fey (guitars, vocals)
Ernst Müller (electric piano, Mellotron, Moog, electronics)

Info

Prosper
BROKEN DOOR
From Bottrop (north of Essen), and formed in 1973 as Prosper I, with the line-up of: Jürgen
Pluta (keyboards, bass), Wolfgang Teske (drums), Uli Ingebold (saxophone, flute), Evert
Brettschneider (guitar), with Matthias Geisen (bass) who had a long history with various
1960's blues and early-1970's prog bands. The original band split when Jürgen joined
Wallenstein, Wolfgang joined Aera for their debut, and Evert went to the experimental
jazz-fusion outfit Contact Trio.
In 1975, Matthias reformed the band as just Prosper, inviting two ex-members of Tobogan, with
the line-up gelling as that on the LP, and Evert being a member of two bands at the same
time. Their mixture of jazzy, blues and prog styles was pretty wide-ranging, with some
notable multi-guitar textures that recall Agitation Free a little in parts, but mostly the
fusion edge and fiery dynamics in the instrumentals give it a Mahavishnu Orchestra cum
Canterbury edge (occasionally towards Brainstorm). The album is quite flawed, however, with
the second track being almost a cappella ballad, and "Your Country" almost living up to the
title at best feels a bit like Wishbone Ash. As a self produced album that would be too
broad-ranging for most tastes it's not surprising it was such an obscurity.
After various changes in the line-up, the band tried to reinvent itself in 1977, but
eventually folded in 1980. For such an unknown band Prosper can be seen as an important focal
point, a seminal hub in the history of many bands, with other connections including Straight
Shooter and Chicken Bones.

If you like the topic, please click share to help develop our site.

To download the file disable ad blocking, and reload the page.

disable adblock How to disable ad blocking?

Download by magnet link 244 MB Download Torrent

Login using:

Similar topics

(Progressive Rock) Riverside - Wasteland - 2018, MP3, 320 kbps
 117 MB   0 | 0   28-Sep-18 11:20   217
(Progressive Metal) [WEB] Plini - Sunhead - 2018, FLAC (tracks), lossless
 136 MB   0 | 0   27-Jul-18 00:35   72


   
Current time is: 25-May 19:16 :: All times are UTC + 3