Back Door - The Human Bed (1973-74)
Жанр: Progressive, Jazz Rock
Страна: UK
Дата записи: 1973 - 1974
Дата выпуска: 2002
Производитель диска, номер, страна: FruitGum Corp., Hux 031, Australia
Аудио кодек: FLAC
Тип рипа: (tracks + .cue)
Битрейт аудио: lossless
Включает: Full artwork
Продолжительность: 46:04
Источник, рип: Vsem, aka Vadim, aka PrOgger
Трэклист:
1. Vienna Breakdown
2. Blue Country Blues
3. Captain Crack Up
4. When You've Got A Good Friend
5. Adolphus Beal
6. Human Bed
7. Fanny Wiggins*
8. Walkin' Blues
9. Louisiana Blues*
10. Slivadiv
11. The Spoiler
12. TB Blues
13. Blakey Jones
14. The Dashing White Sargeant

Cue

REM GENRE " jazz-rock"
REM DATE 2002
REM DISCID BA0ACC0E
REM COMMENT "ExactAudioCopy v0.99pb4"
PERFORMER "back door"
TITLE "the human bed"
FILE "01. vienna breakdown.wav" WAVE
TRACK 01 AUDIO
TITLE "vienna breakdown"
PERFORMER "back door"
INDEX 01 00:00:00
TRACK 02 AUDIO
TITLE "blue country blues"
PERFORMER "back door"
INDEX 00 03:18:54
FILE "02. blue country blues.wav" WAVE
INDEX 01 00:00:00
TRACK 03 AUDIO
TITLE "captain crack up"
PERFORMER "back door"
INDEX 00 02:28:29
FILE "03. captain crack up.wav" WAVE
INDEX 01 00:00:00
TRACK 04 AUDIO
TITLE "whe you've got a good friend"
PERFORMER "back door"
INDEX 00 02:44:51
FILE "04. whe you've got a good friend.wav" WAVE
INDEX 01 00:00:00
TRACK 05 AUDIO
TITLE "adolphus beal"
PERFORMER "back door"
INDEX 00 03:17:01
FILE "05. adolphus beal.wav" WAVE
INDEX 01 00:00:00
TRACK 06 AUDIO
TITLE "human bed"
PERFORMER "back door"
INDEX 00 03:40:73
FILE "06. human bed.wav" WAVE
INDEX 01 00:00:00
TRACK 07 AUDIO
TITLE "fanny wiggins"
PERFORMER "back door"
INDEX 00 02:26:73
FILE "07. fanny wiggins.wav" WAVE
INDEX 01 00:00:00
TRACK 08 AUDIO
TITLE "walkin blues"
PERFORMER "back door"
INDEX 00 02:59:26
FILE "08. walkin blues.wav" WAVE
INDEX 01 00:00:00
TRACK 09 AUDIO
TITLE "louisiana blues"
PERFORMER "back door"
INDEX 00 03:43:29
FILE "09. louisiana blues.wav" WAVE
INDEX 01 00:00:00
TRACK 10 AUDIO
TITLE "slivadiv"
PERFORMER "back door"
INDEX 00 03:13:25
FILE "10. slivadiv.wav" WAVE
INDEX 01 00:00:00
TRACK 11 AUDIO
TITLE "the spoiler"
PERFORMER "back door"
INDEX 00 03:30:41
FILE "11. the spoiler.wav" WAVE
INDEX 01 00:00:00
TRACK 12 AUDIO
TITLE "tb blues"
PERFORMER "back door"
INDEX 00 05:29:16
FILE "12. tb blues.wav" WAVE
INDEX 01 00:00:00
TRACK 13 AUDIO
TITLE "blakey jones"
PERFORMER "back door"
INDEX 00 03:25:35
FILE "13. blakey jones.wav" WAVE
INDEX 01 00:00:00
TRACK 14 AUDIO
TITLE "the dashing white sargeant"
PERFORMER "back door"
INDEX 00 03:58:38
FILE "14. the dashing white sargeant.wav" WAVE
INDEX 01 00:00:00

EAC log

Exact Audio Copy V0.99 prebeta 4 from 23. January 2008
EAC extraction logfile from 1. November 2008, 13:18
back door / the human bed
Used drive : Optiarc DVD RW AD-7170A Adapter: 1 ID: 0
Read mode : Secure
Utilize accurate stream : Yes
Defeat audio cache : Yes
Make use of C2 pointers : No
Read offset correction : 48
Overread into Lead-In and Lead-Out : No
Fill up missing offset samples with silence : Yes
Delete leading and trailing silent blocks : No
Null samples used in CRC calculations : Yes
Used interface : Installed external ASPI interface
Gap handling : Appended to previous track
Used output format : User Defined Encoder
Selected bitrate : 768 kBit/s
Quality : High
Add ID3 tag : No
Command line compressor : C:\Program Files\Exact Audio Copy\FLAC\FLAC.EXE
Additional command line options : -6 -V -T "ARTIST=%a" -T "TITLE=%t" -T "ALBUM=%g" -T "DATE=%y" -T "TRACKNUMBER=%n" -T "GENRE=%m" -T "COMMENT=%e" %s -o %d
TOC of the extracted CD
Track | Start | Length | Start sector | End sector
---------------------------------------------------------
1 | 0:00.00 | 3:20.56 | 0 | 15055
2 | 3:20.56 | 2:30.31 | 15056 | 26336
3 | 5:51.12 | 2:46.53 | 26337 | 38839
4 | 8:37.65 | 3:19.03 | 38840 | 53767
5 | 11:56.68 | 3:43.00 | 53768 | 70492
6 | 15:39.68 | 2:29.00 | 70493 | 81667
7 | 18:08.68 | 3:01.28 | 81668 | 95270
8 | 21:10.21 | 3:45.31 | 95271 | 112176
9 | 24:55.52 | 3:15.27 | 112177 | 126828
10 | 28:11.04 | 3:32.43 | 126829 | 142771
11 | 31:43.47 | 5:31.18 | 142772 | 167614
12 | 37:14.65 | 3:27.37 | 167615 | 183176
13 | 40:42.27 | 4:00.40 | 183177 | 201216
14 | 44:42.67 | 1:22.00 | 201217 | 207366
Track 1
Filename C:\byPr0gger\Back Door - The Human Bed (1973-74)[FLAC]{2002,Hux 031}\01. vienna breakdown.wav
Pre-gap length 0:00:02.00
Peak level 99.4 %
Track quality 100.0 %
Test CRC 044A643A
Copy CRC 044A643A
Track not present in AccurateRip database
Copy OK
Track 2
Filename C:\byPr0gger\Back Door - The Human Bed (1973-74)[FLAC]{2002,Hux 031}\02. blue country blues.wav
Pre-gap length 0:00:02.02
Peak level 99.4 %
Track quality 99.9 %
Test CRC C92C8B9F
Copy CRC C92C8B9F
Track not present in AccurateRip database
Copy OK
Track 3
Filename C:\byPr0gger\Back Door - The Human Bed (1973-74)[FLAC]{2002,Hux 031}\03. captain crack up.wav
Pre-gap length 0:00:02.02
Peak level 92.9 %
Track quality 99.9 %
Test CRC 660DDD3F
Copy CRC 660DDD3F
Track not present in AccurateRip database
Copy OK
Track 4
Filename C:\byPr0gger\Back Door - The Human Bed (1973-74)[FLAC]{2002,Hux 031}\04. whe you've got a good friend.wav
Pre-gap length 0:00:02.02
Peak level 99.4 %
Track quality 100.0 %
Test CRC 14573A7F
Copy CRC 14573A7F
Track not present in AccurateRip database
Copy OK
Track 5
Filename C:\byPr0gger\Back Door - The Human Bed (1973-74)[FLAC]{2002,Hux 031}\05. adolphus beal.wav
Pre-gap length 0:00:02.02
Peak level 99.4 %
Track quality 100.0 %
Test CRC BD717CF7
Copy CRC BD717CF7
Track not present in AccurateRip database
Copy OK
Track 6
Filename C:\byPr0gger\Back Door - The Human Bed (1973-74)[FLAC]{2002,Hux 031}\06. human bed.wav
Pre-gap length 0:00:02.02
Peak level 99.4 %
Track quality 100.0 %
Test CRC 3C59614D
Copy CRC 3C59614D
Track not present in AccurateRip database
Copy OK
Track 7
Filename C:\byPr0gger\Back Door - The Human Bed (1973-74)[FLAC]{2002,Hux 031}\07. fanny wiggins.wav
Pre-gap length 0:00:02.02
Peak level 99.4 %
Track quality 100.0 %
Test CRC 165DB2F0
Copy CRC 165DB2F0
Track not present in AccurateRip database
Copy OK
Track 8
Filename C:\byPr0gger\Back Door - The Human Bed (1973-74)[FLAC]{2002,Hux 031}\08. walkin blues.wav
Pre-gap length 0:00:02.02
Peak level 99.4 %
Track quality 100.0 %
Test CRC DF660C5C
Copy CRC DF660C5C
Track not present in AccurateRip database
Copy OK
Track 9
Filename C:\byPr0gger\Back Door - The Human Bed (1973-74)[FLAC]{2002,Hux 031}\09. louisiana blues.wav
Pre-gap length 0:00:02.02
Peak level 99.4 %
Track quality 100.0 %
Test CRC 5C6BA42C
Copy CRC 5C6BA42C
Track not present in AccurateRip database
Copy OK
Track 10
Filename C:\byPr0gger\Back Door - The Human Bed (1973-74)[FLAC]{2002,Hux 031}\10. slivadiv.wav
Pre-gap length 0:00:02.02
Peak level 99.4 %
Track quality 100.0 %
Test CRC 77B54795
Copy CRC 77B54795
Track not present in AccurateRip database
Copy OK
Track 11
Filename C:\byPr0gger\Back Door - The Human Bed (1973-74)[FLAC]{2002,Hux 031}\11. the spoiler.wav
Pre-gap length 0:00:02.02
Peak level 99.4 %
Track quality 100.0 %
Test CRC B74B5A85
Copy CRC B74B5A85
Track not present in AccurateRip database
Copy OK
Track 12
Filename C:\byPr0gger\Back Door - The Human Bed (1973-74)[FLAC]{2002,Hux 031}\12. tb blues.wav
Pre-gap length 0:00:02.02
Peak level 99.4 %
Track quality 100.0 %
Test CRC 238D4E0A
Copy CRC 238D4E0A
Track not present in AccurateRip database
Copy OK
Track 13
Filename C:\byPr0gger\Back Door - The Human Bed (1973-74)[FLAC]{2002,Hux 031}\13. blakey jones.wav
Pre-gap length 0:00:02.02
Peak level 99.4 %
Track quality 100.0 %
Test CRC 1CDFD6A1
Copy CRC 1CDFD6A1
Track not present in AccurateRip database
Copy OK
Track 14
Filename C:\byPr0gger\Back Door - The Human Bed (1973-74)[FLAC]{2002,Hux 031}\14. the dashing white sargeant.wav
Pre-gap length 0:00:02.02
Peak level 99.4 %
Track quality 100.0 %
Test CRC DCF30932
Copy CRC DCF30932
Track not present in AccurateRip database
Copy OK
None of the tracks are present in the AccurateRip database
No errors occurred
End of status report

auCDtect log

1038096672 35411756 01. vienna breakdown.wav
2200161692 26532956 02. blue country blues.wav
2772590441 29407100 03. captain crack up.wav
3089890646 35110700 04. whe you've got a good friend.wav
2218508843 39337244 05. adolphus beal.wav
3210686140 26283644 06. human bed.wav
2470820334 31994300 07. fanny wiggins.wav
107379900 39762956 08. walkin blues.wav
1683796643 34461548 09. louisiana blues.wav
1736029030 37497980 10. slivadiv.wav
3027531601 58430780 11. the spoiler.wav
3389042131 36601868 12. tb blues.wav
2291730882 42430124 13. blakey jones.wav
4079497455 14464844 14. the dashing white sargeant.wav
auCDtect: CD records authenticity detector, version 0.8.2
Copyright (c) 2004 Oleg Berngardt. All rights reserved.
Copyright (c) 2004 Alexander Djourik. All rights reserved.
------------------------------------------------------------
Processing file: [01. vienna breakdown.wav]
------------------------------------------------------------
This track looks like CDDA with probability 100%
------------------------------------------------------------
Processing file: [02. blue country blues.wav]
------------------------------------------------------------
This track looks like CDDA with probability 100%
------------------------------------------------------------
Processing file: [03. captain crack up.wav]
------------------------------------------------------------
This track looks like CDDA with probability 100%
------------------------------------------------------------
Processing file: [04. whe you've got a good friend.wav]
------------------------------------------------------------
This track looks like CDDA with probability 100%
------------------------------------------------------------
Processing file: [05. adolphus beal.wav]
------------------------------------------------------------
This track looks like CDDA with probability 100%
------------------------------------------------------------
Processing file: [06. human bed.wav]
------------------------------------------------------------
This track looks like CDDA with probability 100%
------------------------------------------------------------
Processing file: [07. fanny wiggins.wav]
------------------------------------------------------------
This track looks like CDDA with probability 100%
------------------------------------------------------------
Processing file: [08. walkin blues.wav]
------------------------------------------------------------
This track looks like CDDA with probability 100%
------------------------------------------------------------
Processing file: [09. louisiana blues.wav]
------------------------------------------------------------
This track looks like CDDA with probability 100%
------------------------------------------------------------
Processing file: [10. slivadiv.wav]
------------------------------------------------------------
This track looks like CDDA with probability 100%
------------------------------------------------------------
Processing file: [11. the spoiler.wav]
------------------------------------------------------------
This track looks like CDDA with probability 100%
------------------------------------------------------------
Processing file: [12. tb blues.wav]
------------------------------------------------------------
This track looks like CDDA with probability 100%
------------------------------------------------------------
Processing file: [13. blakey jones.wav]
------------------------------------------------------------
This track looks like CDDA with probability 100%
------------------------------------------------------------
Processing file: [14. the dashing white sargeant.wav]
------------------------------------------------------------
This track looks like CDDA with probability 100%
------------------------------------------------------------
Final Conclusion:
------------------------------------------------------------
These tracks looks like CDDA with probability 100%
Доп. информация:

Состав

Ron Aspery - Alto and soprano saxophones. Also electric piano on Fanny Wiggins, Walkin' Blues & The Spoiler
Colin Hodgkinson - Bass guitar, vocals. 12 string guitar on TB Blues
Tony Hicks - Drums
Dave MacRae - Electric piano on Slivadiv, The Spoiler, TB Blues, Blakey Jones & The Dashing White Sergeant

инфо с gepr.net, alexgitlin.com

Sax/bass/drums трио из Blakey (Yorkshire), обратившее на себя внимание благодаря басисту (Colin Hodgkinson), игравшему аккордами и вполне заменяющему гитариста (позже, в течение короткого периода в 1983 он сотрудничал с Whitesnake). Первые записи имели сильное хард-проговое влияние, много итересных идей и сильных композиций, позже трио ушло в блюз и потерялось из виду. Альбом содержит три ранее не изданные сессии на Radio 1, записанные в 1973-1974. Четыре номера, отмеченные (*) ранее никогда не издавались
Выкладывается с ведома и разрешения Vsem, aka Vadim, aka PrOgger
Я не сидирую все свои раздачи подолгу, только новые (до 3х первых сидов)
За своими раздачами не слежу, и старые топики не читаю - если нет сидов или раздача находится в архиве, пришлите письмо, и я вернусь
Предлагаю скачавшим максимально долго оставаться на раздаче - весь рейтинг будет ваш.
Заботьтесь о своем рейтинге - конвертируйте в мп3 и выкладывайте в соответствующем разделе

If you like the topic, please click share to help develop our site.

To download the file disable ad blocking, and reload the page.

disable adblock How to disable ad blocking?

Download by magnet link 339 MB Download Torrent

Login using:

Similar topics



   
Current time is: 19-Jul 12:58 :: All times are UTC + 3