Ville Emard Blues Band - Au Complet
Жанр: Progressive Rock
Страна: Canada
Дата выпуска: 1973 (2004)
Производитель диска, номер, страна: Musique ProgresSon Music Inc. (MPM01)
Аудио кодек: FLAC
Тип рипа: (tracks + .cue)
Битрейт аудио: lossless
Включает: Full artwork
Продолжительность: 01:11:52 + 01:14:08
Источник: torrent
Трэклист:
Disc I
01. Intro
02. Sousmis/Octobre (au mois de mai)
03. Ville Emard Blues
04. Comme Par Magie
05. That Ain't No Way To Be
06. Ste-Melanie Blues
07. Ode A Une Belle Inconnue
08. A World Of Love (Make Some Music)
09. Kondy Donky
10. Va T'en Vite
11. Pixieland
12. Indian Giver God
13. City Music
14. Poirots Nevroses

EAC

EAC extraction logfile from 17. August 2007, 19:47 for CD
Ville Emard Blues Band / 1973-1975 au complet
Used drive : PLEXTOR DVDR PX-755A Adapter: 4 ID: 1
Read mode : Secure with NO C2, accurate stream, disable cache
Read offset correction : 30
Overread into Lead-In and Lead-Out : No
Used output format : D:\Program Files\EAC\Exact Audio Copy\flac.exe (User Defined Encoder)
320 kBit/s
Additional command line options : -V -8 -T "artist=%a" -T "title=%t" -T "album=%g" -T "date=%y" -T "tracknumber=%n" -T "genre=%m" %s
Other options :
Fill up missing offset samples with silence : Yes
Delete leading and trailing silent blocks : No
Installed external ASPI interface
Track 1
Filename D:\1 - Music + Stuff\01 - Intro.wav
Pre-gap length 0:00:02.00
Peak level 93.3 %
Track quality 100.0 %
Test CRC 3E89733B
Copy CRC 3E89733B
Copy OK
Track 2
Filename D:\1 - Music + Stuff\02 - Soumis - Octobre (au mois de mai).wav
Peak level 97.7 %
Track quality 100.0 %
Test CRC 5C5C6D7D
Copy CRC 5C5C6D7D
Copy OK
Track 3
Filename D:\1 - Music + Stuff\03 - Ville Emard Blues.wav
Peak level 98.5 %
Track quality 100.0 %
Test CRC FD0BE8E2
Copy CRC FD0BE8E2
Copy OK
Track 4
Filename D:\1 - Music + Stuff\04 - Comme par magie.wav
Peak level 98.5 %
Track quality 100.0 %
Test CRC 2101C5AC
Copy CRC 2101C5AC
Copy OK
Track 5
Filename D:\1 - Music + Stuff\05 - That ain't no way to be.wav
Peak level 98.7 %
Track quality 100.0 %
Test CRC 540AE14C
Copy CRC 540AE14C
Copy OK
Track 6
Filename D:\1 - Music + Stuff\06 - Ste-Mйlanie blues.wav
Peak level 98.3 %
Track quality 100.0 %
Test CRC C135CB14
Copy CRC C135CB14
Copy OK
Track 7
Filename D:\1 - Music + Stuff\07 - Ode а une belle inconnue.wav
Peak level 98.6 %
Track quality 100.0 %
Test CRC 8CA31B76
Copy CRC 8CA31B76
Copy OK
Track 8
Filename D:\1 - Music + Stuff\08 - A world of love (make some music).wav
Peak level 99.0 %
Track quality 100.0 %
Test CRC 9A0975F9
Copy CRC 9A0975F9
Copy OK
Track 9
Filename D:\1 - Music + Stuff\09 - Kondy donky.wav
Peak level 98.5 %
Track quality 100.0 %
Test CRC 39C6B404
Copy CRC 39C6B404
Copy OK
Track 10
Filename D:\1 - Music + Stuff\10 - Va t'en vite.wav
Peak level 100.0 %
Track quality 100.0 %
Test CRC 5F72E4C8
Copy CRC 5F72E4C8
Copy OK
Track 11
Filename D:\1 - Music + Stuff\11 - Pixieland.wav
Peak level 98.8 %
Track quality 100.0 %
Test CRC 56B09A13
Copy CRC 56B09A13
Copy OK
Track 12
Filename D:\1 - Music + Stuff\12 - Indian giver God.wav
Peak level 98.1 %
Track quality 100.0 %
Test CRC B121CE9D
Copy CRC B121CE9D
Copy OK
Track 13
Filename D:\1 - Music + Stuff\13 - City music.wav
Peak level 98.6 %
Track quality 100.0 %
Test CRC CDB17F18
Copy CRC CDB17F18
Copy OK
Track 14
Filename D:\1 - Music + Stuff\14 - Poirots nйvrosйs.wav
Peak level 98.6 %
Track quality 100.0 %
Test CRC C5578A3F
Copy CRC C5578A3F
Copy OK
No errors occured
End of status report

CUE

REM GENRE "Progressive Rock"
REM DATE 2004
REM DISCID AC10D80E
REM COMMENT "ExactAudioCopy v0.95b4"
PERFORMER "Ville Emard Blues Band"
TITLE "1973-1975 au complet"
FILE "01 - Intro.wav" WAVE
TRACK 01 AUDIO
TITLE "Intro"
PERFORMER "Ville Emard Blues Band"
INDEX 01 00:00:00
FILE "02 - Soumis - Octobre (au mois de mai).wav" WAVE
TRACK 02 AUDIO
TITLE "Soumis - Octobre (au mois de mai)"
PERFORMER "Ville Emard Blues Band"
INDEX 01 00:00:00
FILE "03 - Ville Emard Blues.wav" WAVE
TRACK 03 AUDIO
TITLE "Ville Emard Blues"
PERFORMER "Ville Emard Blues Band"
INDEX 01 00:00:00
FILE "04 - Comme par magie.wav" WAVE
TRACK 04 AUDIO
TITLE "Comme par magie"
PERFORMER "Ville Emard Blues Band"
INDEX 01 00:00:00
FILE "05 - That ain't no way to be.wav" WAVE
TRACK 05 AUDIO
TITLE "That ain't no way to be"
PERFORMER "Ville Emard Blues Band"
INDEX 01 00:00:00
FILE "06 - Ste-Mйlanie blues.wav" WAVE
TRACK 06 AUDIO
TITLE "Ste-Mйlanie blues"
PERFORMER "Ville Emard Blues Band"
INDEX 01 00:00:00
FILE "07 - Ode а une belle inconnue.wav" WAVE
TRACK 07 AUDIO
TITLE "Ode а une belle inconnue"
PERFORMER "Ville Emard Blues Band"
INDEX 01 00:00:00
FILE "08 - A world of love (make some music).wav" WAVE
TRACK 08 AUDIO
TITLE "A world of love (make some music)"
PERFORMER "Ville Emard Blues Band"
INDEX 01 00:00:00
FILE "09 - Kondy donky.wav" WAVE
TRACK 09 AUDIO
TITLE "Kondy donky"
PERFORMER "Ville Emard Blues Band"
INDEX 01 00:00:00
FILE "10 - Va t'en vite.wav" WAVE
TRACK 10 AUDIO
TITLE "Va t'en vite"
PERFORMER "Ville Emard Blues Band"
INDEX 01 00:00:00
FILE "11 - Pixieland.wav" WAVE
TRACK 11 AUDIO
TITLE "Pixieland"
PERFORMER "Ville Emard Blues Band"
INDEX 01 00:00:00
FILE "12 - Indian giver God.wav" WAVE
TRACK 12 AUDIO
TITLE "Indian giver God"
PERFORMER "Ville Emard Blues Band"
INDEX 01 00:00:00
FILE "13 - City music.wav" WAVE
TRACK 13 AUDIO
TITLE "City music"
PERFORMER "Ville Emard Blues Band"
INDEX 01 00:00:00
FILE "14 - Poirots nйvrosйs.wav" WAVE
TRACK 14 AUDIO
TITLE "Poirots nйvrosйs"
PERFORMER "Ville Emard Blues Band"
INDEX 01 00:00:00

auCDtect log

3148519848 7048988 01 - Intro.wav
872729852 88404668 02 - Soumis - Octobre (au mois de mai).wav
2636566341 40151036 03 - Ville Emard Blues.wav
4111224253 63642812 04 - Comme par magie.wav
1622692112 65733740 05 - That ain't no way to be.wav
3010926615 42451292 06 - Ste-Melanie blues.wav
105262525 66055964 07 - Ode a une belle inconnue.wav
2715405924 38798636 08 - A world of love (make some music).wav
1413324110 95406572 09 - Kondy donky.wav
689858348 47531612 10 - Va t'en vite.wav
101915843 35830412 11 - Pixieland.wav
2621234762 49599020 12 - Indian giver God.wav
339756406 48994556 13 - City music.wav
2148880904 71030444 14 - Poirots nevroses.wav
auCDtect: CD records authenticity detector, version 0.8.2
Copyright (c) 2004 Oleg Berngardt. All rights reserved.
Copyright (c) 2004 Alexander Djourik. All rights reserved.
------------------------------------------------------------
Processing file: [01 - Intro.wav]
------------------------------------------------------------
This track looks like CDDA with probability 100%
------------------------------------------------------------
Processing file: [02 - Soumis - Octobre (au mois de mai).wav]
------------------------------------------------------------
This track looks like CDDA with probability 100%
------------------------------------------------------------
Processing file: [03 - Ville Emard Blues.wav]
------------------------------------------------------------
This track looks like CDDA with probability 100%
------------------------------------------------------------
Processing file: [04 - Comme par magie.wav]
------------------------------------------------------------
This track looks like CDDA with probability 100%
------------------------------------------------------------
Processing file: [05 - That ain't no way to be.wav]
------------------------------------------------------------
This track looks like CDDA with probability 100%
------------------------------------------------------------
Processing file: [06 - Ste-Melanie blues.wav]
------------------------------------------------------------
This track looks like CDDA with probability 100%
------------------------------------------------------------
Processing file: [07 - Ode a une belle inconnue.wav]
------------------------------------------------------------
This track looks like CDDA with probability 100%
------------------------------------------------------------
Processing file: [08 - A world of love (make some music).wav]
------------------------------------------------------------
This track looks like CDDA with probability 100%
------------------------------------------------------------
Processing file: [09 - Kondy donky.wav]
------------------------------------------------------------
This track looks like CDDA with probability 100%
------------------------------------------------------------
Processing file: [10 - Va t'en vite.wav]
------------------------------------------------------------
This track looks like CDDA with probability 100%
------------------------------------------------------------
Processing file: [11 - Pixieland.wav]
------------------------------------------------------------
This track looks like CDDA with probability 100%
------------------------------------------------------------
Processing file: [12 - Indian giver God.wav]
------------------------------------------------------------
This track looks like CDDA with probability 99%
------------------------------------------------------------
Processing file: [13 - City music.wav]
------------------------------------------------------------
This track looks like CDDA with probability 99%
------------------------------------------------------------
Processing file: [14 - Poirots nevroses.wav]
------------------------------------------------------------
This track looks like CDDA with probability 100%
------------------------------------------------------------
Final Conclusion:
------------------------------------------------------------
These tracks looks like CDDA with probability 100%
Disc II
01. Strangle/ Solos De Batteries
02. Yama Nekh
03. You and Your Mother
04. La Poutine A Ma Tante Anna
05. In Our Loneliness
06. Affaire C.S.R. vs Marlyle Killer & Stobert Ranley
07. Where's Your Money
08. Walter's Van
09. La Machine Infernale
10. Le Chemin
11. Sleepy Teepy
12. Secret Pour Pierre-Antoine
13. Guess Who's Coming To Jam
14. Yama Nekh (single version)
15. S'asseoir Dans Les Champs (single version)

EAC

EAC extraction logfile from 17. August 2007, 21:02 for CD
Ville Emard Blues Band / Complete 1973-75 (CD2)
Used drive : PLEXTOR DVDR PX-755A Adapter: 4 ID: 1
Read mode : Secure with NO C2, accurate stream, disable cache
Read offset correction : 30
Overread into Lead-In and Lead-Out : No
Used output format : D:\Program Files\EAC\Exact Audio Copy\flac.exe (User Defined Encoder)
320 kBit/s
Additional command line options : -V -8 -T "artist=%a" -T "title=%t" -T "album=%g" -T "date=%y" -T "tracknumber=%n" -T "genre=%m" %s
Other options :
Fill up missing offset samples with silence : Yes
Delete leading and trailing silent blocks : No
Installed external ASPI interface
Track 1
Filename D:\1 - Music + Stuff\01 - Strangle - Solos De Batteries.wav
Pre-gap length 0:00:02.00
Peak level 99.1 %
Track quality 100.0 %
Test CRC 40A04283
Copy CRC 40A04283
Copy OK
Track 2
Filename D:\1 - Music + Stuff\02 - Yama Nekh (live).wav
Peak level 98.9 %
Track quality 100.0 %
Test CRC EB093412
Copy CRC EB093412
Copy OK
Track 3
Filename D:\1 - Music + Stuff\03 - You And Your Mother.wav
Peak level 98.6 %
Track quality 99.9 %
Test CRC 60055F92
Copy CRC 60055F92
Copy OK
Track 4
Filename D:\1 - Music + Stuff\04 - La Poutine а Ma Tante Anna.wav
Pre-gap length 0:00:02.00
Peak level 100.0 %
Track quality 99.9 %
Test CRC A0560EF5
Copy CRC A0560EF5
Copy OK
Track 5
Filename D:\1 - Music + Stuff\05 - In Our Loneliness.wav
Pre-gap length 0:00:02.02
Peak level 87.1 %
Track quality 99.9 %
Test CRC 65338B60
Copy CRC 65338B60
Copy OK
Track 6
Filename D:\1 - Music + Stuff\06 - Affaire C.S.R. vs Marlyle Killer & Stobert Ranley.wav
Pre-gap length 0:00:02.00
Peak level 98.7 %
Track quality 99.9 %
Test CRC 2AE057C5
Copy CRC 2AE057C5
Copy OK
Track 7
Filename D:\1 - Music + Stuff\07 - Where's Your Money.wav
Peak level 100.0 %
Track quality 100.0 %
Test CRC 8A33CAAE
Copy CRC 8A33CAAE
Copy OK
Track 8
Filename D:\1 - Music + Stuff\08 - Walter's Van.wav
Pre-gap length 0:00:02.00
Peak level 98.7 %
Track quality 100.0 %
Test CRC AC1E8638
Copy CRC AC1E8638
Copy OK
Track 9
Filename D:\1 - Music + Stuff\09 - La Machine Infernale.wav
Pre-gap length 0:00:02.00
Peak level 98.7 %
Track quality 100.0 %
Test CRC 09BF3B90
Copy CRC 09BF3B90
Copy OK
Track 10
Filename D:\1 - Music + Stuff\10 - Le Chemin.wav
Pre-gap length 0:00:02.00
Peak level 62.1 %
Track quality 100.0 %
Test CRC 9EF99434
Copy CRC 9EF99434
Copy OK
Track 11
Filename D:\1 - Music + Stuff\11 - Sleepy Teepy.wav
Pre-gap length 0:00:02.00
Peak level 98.7 %
Track quality 100.0 %
Test CRC 42B22713
Copy CRC 42B22713
Copy OK
Track 12
Filename D:\1 - Music + Stuff\12 - Secret Pour Pierre-Antoine.wav
Pre-gap length 0:00:02.00
Peak level 98.5 %
Track quality 100.0 %
Test CRC 19B21FDD
Copy CRC 19B21FDD
Copy OK
Track 13
Filename D:\1 - Music + Stuff\13 - Guess Who's Coming To Jam.wav
Pre-gap length 0:00:02.00
Peak level 98.7 %
Track quality 100.0 %
Test CRC 251A04EE
Copy CRC 251A04EE
Copy OK
Track 14
Filename D:\1 - Music + Stuff\14 - Yama Nekh (45 tours).wav
Pre-gap length 0:00:02.01
Peak level 98.4 %
Track quality 100.0 %
Test CRC 3ED9C393
Copy CRC 3ED9C393
Copy OK
Track 15
Filename D:\1 - Music + Stuff\15 - S'asseoir Dans Les Champs.wav
Pre-gap length 0:00:02.00
Peak level 78.4 %
Track quality 100.0 %
Test CRC 0FA590F7
Copy CRC 0FA590F7
Copy OK
No errors occured
End of status report

CUE

REM GENRE "Progressive Rock"
REM DATE 1973
REM DISCID DD11600F
REM COMMENT "ExactAudioCopy v0.95b4"
PERFORMER "Ville Emard Blues Band"
TITLE "Complete 1973-75 (CD2)"
FILE "01 - Strangle - Solos De Batteries.wav" WAVE
TRACK 01 AUDIO
TITLE "Strangle - Solos De Batteries"
PERFORMER "Ville Emard Blues Band"
INDEX 01 00:00:00
FILE "02 - Yama Nekh (live).wav" WAVE
TRACK 02 AUDIO
TITLE "Yama Nekh (live)"
PERFORMER "Ville Emard Blues Band"
INDEX 01 00:00:00
FILE "03 - You And Your Mother.wav" WAVE
TRACK 03 AUDIO
TITLE "You And Your Mother"
PERFORMER "Ville Emard Blues Band"
INDEX 01 00:00:00
TRACK 04 AUDIO
TITLE "La Poutine а Ma Tante Anna"
PERFORMER "Ville Emard Blues Band"
INDEX 00 08:16:30
FILE "04 - La Poutine а Ma Tante Anna.wav" WAVE
INDEX 01 00:00:00
TRACK 05 AUDIO
TITLE "In Our Loneliness"
PERFORMER "Ville Emard Blues Band"
INDEX 00 02:43:51
FILE "05 - In Our Loneliness.wav" WAVE
INDEX 01 00:00:00
TRACK 06 AUDIO
TITLE "Affaire C.S.R. vs Marlyle Killer & Stobert Ranley"
PERFORMER "Ville Emard Blues Band"
INDEX 00 03:21:63
FILE "06 - Affaire C.S.R. vs Marlyle Killer & Stobert Ranley.wav" WAVE
INDEX 01 00:00:00
FILE "07 - Where's Your Money.wav" WAVE
TRACK 07 AUDIO
TITLE "Where's Your Money"
PERFORMER "Ville Emard Blues Band"
INDEX 01 00:00:00
TRACK 08 AUDIO
TITLE "Walter's Van"
PERFORMER "Ville Emard Blues Band"
INDEX 00 04:39:29
FILE "08 - Walter's Van.wav" WAVE
INDEX 01 00:00:00
TRACK 09 AUDIO
TITLE "La Machine Infernale"
PERFORMER "Ville Emard Blues Band"
INDEX 00 06:31:50
FILE "09 - La Machine Infernale.wav" WAVE
INDEX 01 00:00:00
TRACK 10 AUDIO
TITLE "Le Chemin"
PERFORMER "Ville Emard Blues Band"
FLAGS DCP
INDEX 00 05:49:54
FILE "10 - Le Chemin.wav" WAVE
INDEX 01 00:00:00
TRACK 11 AUDIO
TITLE "Sleepy Teepy"
PERFORMER "Ville Emard Blues Band"
FLAGS DCP
INDEX 00 02:45:24
FILE "11 - Sleepy Teepy.wav" WAVE
INDEX 01 00:00:00
TRACK 12 AUDIO
TITLE "Secret Pour Pierre-Antoine"
PERFORMER "Ville Emard Blues Band"
FLAGS DCP
INDEX 00 01:25:52
FILE "12 - Secret Pour Pierre-Antoine.wav" WAVE
INDEX 01 00:00:00
TRACK 13 AUDIO
TITLE "Guess Who's Coming To Jam"
PERFORMER "Ville Emard Blues Band"
FLAGS DCP
INDEX 00 03:48:44
FILE "13 - Guess Who's Coming To Jam.wav" WAVE
INDEX 01 00:00:00
TRACK 14 AUDIO
TITLE "Yama Nekh (45 tours)"
PERFORMER "Ville Emard Blues Band"
FLAGS DCP
INDEX 00 06:48:10
FILE "14 - Yama Nekh (45 tours).wav" WAVE
INDEX 01 00:00:00
TRACK 15 AUDIO
TITLE "S'asseoir Dans Les Champs"
PERFORMER "Ville Emard Blues Band"
FLAGS DCP
INDEX 00 03:08:46
FILE "15 - S'asseoir Dans Les Champs.wav" WAVE
INDEX 01 00:00:00

auCDtect log

2709315229 128720300 01 - Strangle - Solos De Batteries.wav
1702888637 41675132 02 - Yama Nekh (live).wav
2810499736 87917804 03 - You And Your Mother.wav
2238392066 29230700 04 - La Poutine a Ma Tante Anna.wav
2950075630 35957420 05 - In Our Loneliness.wav
636627498 46092188 06 - Affaire C.S.R. vs Marlyle Killer & Stobert Ranley.wav
2978322707 49636652 07 - Where's Your Money.wav
3639835843 69442844 08 - Walter's Van.wav
3737365593 62043452 09 - La Machine Infernale.wav
3810797803 29515292 10 - Le Chemin.wav
3279625961 15469148 11 - Sleepy Teepy.wav
1507903295 40675532 12 - Secret Pour Pierre-Antoine.wav
2201573878 72349916 13 - Guess Who's Coming To Jam.wav
40151280 33624236 14 - Yama Nekh (45 tours).wav
871948390 42366620 15 - S'asseoir Dans Les Champs.wav
auCDtect: CD records authenticity detector, version 0.8.2
Copyright (c) 2004 Oleg Berngardt. All rights reserved.
Copyright (c) 2004 Alexander Djourik. All rights reserved.
------------------------------------------------------------
Processing file: [01 - Strangle - Solos De Batteries.wav]
------------------------------------------------------------
This track looks like CDDA with probability 100%
------------------------------------------------------------
Processing file: [02 - Yama Nekh (live).wav]
------------------------------------------------------------
This track looks like CDDA with probability 100%
------------------------------------------------------------
Processing file: [03 - You And Your Mother.wav]
------------------------------------------------------------
This track looks like CDDA with probability 100%
------------------------------------------------------------
Processing file: [04 - La Poutine a Ma Tante Anna.wav]
------------------------------------------------------------
This track looks like CDDA with probability 100%
------------------------------------------------------------
Processing file: [05 - In Our Loneliness.wav]
------------------------------------------------------------
This track looks like CDDA with probability 100%
------------------------------------------------------------
Processing file: [06 - Affaire C.S.R. vs Marlyle Killer & Stobert Ranley.wav]
------------------------------------------------------------
This track looks like CDDA with probability 100%
------------------------------------------------------------
Processing file: [07 - Where's Your Money.wav]
------------------------------------------------------------
This track looks like CDDA with probability 100%
------------------------------------------------------------
Processing file: [08 - Walter's Van.wav]
------------------------------------------------------------
This track looks like CDDA with probability 100%
------------------------------------------------------------
Processing file: [09 - La Machine Infernale.wav]
------------------------------------------------------------
This track looks like CDDA with probability 100%
------------------------------------------------------------
Processing file: [10 - Le Chemin.wav]
------------------------------------------------------------
This track looks like MPEG with probability 100%
------------------------------------------------------------
Processing file: [11 - Sleepy Teepy.wav]
------------------------------------------------------------
This track looks like CDDA with probability 100%
------------------------------------------------------------
Processing file: [12 - Secret Pour Pierre-Antoine.wav]
------------------------------------------------------------
This track looks like CDDA with probability 100%
------------------------------------------------------------
Processing file: [13 - Guess Who's Coming To Jam.wav]
------------------------------------------------------------
This track looks like CDDA with probability 100%
------------------------------------------------------------
Processing file: [14 - Yama Nekh (45 tours).wav]
------------------------------------------------------------
This track looks like CDDA with probability 100%
------------------------------------------------------------
Processing file: [15 - S'asseoir Dans Les Champs.wav]
------------------------------------------------------------
This track looks like CDDA with probability 100%
------------------------------------------------------------
Final Conclusion:
------------------------------------------------------------
Could not qualify the source of these tracks.
Доп. информация:

Несколько слов на английском

Taking it's name from the Ville Emard district of Quebec, the Ville Emard Blues Band (VEBB) was formed as a cooperative in 1972 by bassist Bill Gagnon, and included upwards of 20+ musicians at any given time. This 2-CD set collects all the tracks from the Live б Montreal and Ville Emard albums from 1974 and ?75, plus a bonus track and singles from 1973. All tracks except the bonus ("Vat'en Vite") were digitally remastered by Bill Gagnon.
Formed primarily as a music workshop in a working class district of Montreal, Ville Emard Blues Band was a collaboration of up to 25 musicians pooling their musical talents and creative ideas together to form a collage encompassing elements of all the different styles of music which were prevalent in Quйbec during the early 70s. The musicians had an 'anything goes' approach , allowing the band to substitute musicians according the style of the song. Ranging from American R & B, funk, fusion, improvisational jazz, and British progressive rock; VEBB assimilated all these sounds and textures and created some of the best music La Belle Province has ever produced.
Throughout the Live б Montreal set VEBB treat us to heavy doses of 70's styled Funk, Rock, Jazz and Progressive rock, the percussion and horns often bringing to mind Rare Earth and the earliest Chicago albums. The band come roaring out of the starting gate with "Soumis", a tasty bit of jazz inspired progressive rock with a huge horn section, an excellent dual guitar sound, and Lise Cousineau's vocals sound like a French Chrissy Hynde. And from there they cover a great deal of musical territory. "Ville Emard Blues" is a short instrumental but features some great guitar interplay against a cool rolling bass driven melody. "Comme par Magie" has a 60's jazz sound I really enjoyed. Kind of like Claudine Longet gone prog-jazz. And "That Ain't No Way To Be" demonstrates what a head boppin' funky bunch of jazz-rockers VEBB can be.
"Ode б une Belle Inconnue" is an interesting tune. It's a lovely concert piano piece. Orchestral... but a bit Richard Clayderman too. But it also has classic progressive elements. Strange contrasts. VEBB crank out their share of pop fluff too, as evidenced by songs like "A World Of Love". But again we've got a strange contrast because the keyboard sound on that song sounds like Tony Banks is sitting in. Yet as if they were only doing an obligatory hit during the live show, VEBB follow this song with what is easily my favorite track on disc one, the 9 minute instrumental "Kondy Donky". The band lay down a steady pounding bass and percussion groove, against which the horns, clavinette and guitar take off and jam. Nicely ripping jazz-rock. Fans of electric era Miles Davis will drool over this one. And VEBB follow this with a succession of songs that feature their instrumental prowess and hot jams.
Off in very different territory is the acoustic country-folk song,( UGH!) "Indian Giver God", penned by VEBB guitarist Rawn Bankley. Where did this come from? It's a good song but totally out of whack with everything else. It's followed by another Bankley tune, "City Music", which is similar but more full band and Bluesy,Interesting. But then as if to say, "Ok Rawn, we let you do your tunes. Now let's get back to business"... the band return to electric Miles territory and close out disc one with the intense free jazz number, "Poirots Nйvrosйs". The first 24 minutes of disc two wraps up the live Montreal show, the highlight being the 12 minute funky prog-jazz jam rocker, "Strangle". I love the bit where Lise Cousineau does her Indian mantra chant while the band jam along in Funkland. Smokin!! And smokin' is exactly how I'd describe the better part of the set. Clearly an ensemble that thrives in a live environment.
So how do the studio tracks that make up the rest of disc two compare? The Ville Emard studio set opens with "La Poutine б ma Tante Anna", an awesome jazz-rock tune with a progressive rock edge. This track makes a potent statement in less than 3 minutes. A real mind blower. But what the hell is this that comes next?! A light and fluffy piano and vocal song. Sharon Ryan's voice is from the heavens. No question about it. But I was expecting something with a bit more fire after that powerhouse opening. But not to worry... VEBB return to the land of prog jazzy funk and soul with the next track, "Affaire C.S.R. vs Marlyle Killer & Robert Ranley". Killer guitar! "Walter's Van" is like jazz-funk noir and definitely one of my favorites among the studio tracks. Equally compelling is "Guess Who's Coming To Jam", a fiery instrumental with phenomenal ivory tickling on the piano and a bass gone wild. Except for one more lulling fluffy song the remaining tracks are top notch and showcase a band exploring the possibilities of the stylistic concoctions they so clearly excel at. And the two songs from the 1973 single nicely round out this collection.
Ссылки:
http://www.thecanadianencyclopedia.com/index.cfm?PgNm=TCE&Params=U1ARTU0003601
http://fivebucksonbytor.blogspot.com/2007/06/ville-mard-blues-band.html
Я не сидирую все свои раздачи подолгу, только новые (до 3х первых сидов)
За своими раздачами не слежу, и старые топики не читаю - если нет сидов или раздача находится в архиве, пришлите письмо, и я вернусь
Предлагаю скачавшим максимально долго оставаться на раздаче - весь рейтинг будет ваш.
Заботьтесь о своем рейтинге - конвертируйте в мп3 и выкладывайте в соответствующем разделе

If you like the topic, please click share to help develop our site.

To download the file disable ad blocking, and reload the page.

disable adblock How to disable ad blocking?

Download by magnet link 972 MB Download Torrent

Login using:

Similar topics



   
Current time is: 27-May 03:08 :: All times are UTC + 3