The Pineapple Thief - The Dawn Raids - Volume 2
Жанр: Progressive Rock
Год выпуска диска: 2009
Аудио кодек: FLAC
Тип рипа: tracks+.cue
Битрейт аудио: lossless
Продолжительность: 00:21:19
Трэклист:
01. Tightly Wound - Acoustic Version : 5:33
02. Freefall : 5:42
03. Bitter Day : 4:53
04. Second Chance : 5:11

Rip by macwarriorx

Exact Audio Copy V0.99 prebeta 4 from 23. January 2008
EAC extraction logfile from 7. May 2009, 14:38
The Pineapple Thief / The Dawn Raids - Volume 2
Used drive : MATSHITADVD-R UJ-857D Adapter: 0 ID: 0
Read mode : Secure
Utilize accurate stream : Yes
Defeat audio cache : Yes
Make use of C2 pointers : No
Read offset correction : 102
Overread into Lead-In and Lead-Out : No
Fill up missing offset samples with silence : Yes
Delete leading and trailing silent blocks : No
Null samples used in CRC calculations : Yes
Used interface : Native Win32 interface for Win NT & 2000
Gap handling : Appended to previous track
Used output format : User Defined Encoder
Selected bitrate : 128 kBit/s
Quality : High
Add ID3 tag : No
Command line compressor : C:\Program Files\Exact Audio Copy\Flac\flac.exe
Additional command line options : -V -8 -T "artist=%a" -T "title=%t" -T "album=%g" -T "date=%y" -T "tracknumber=%n" -T "genre=%m" %s
TOC of the extracted CD
Track | Start | Length | Start sector | End sector
---------------------------------------------------------
1 | 0:00.00 | 5:33.25 | 0 | 24999
2 | 5:33.25 | 5:42.19 | 25000 | 50668
3 | 11:15.44 | 4:53.23 | 50669 | 72666
4 | 16:08.67 | 5:10.42 | 72667 | 95958
Track 1
Filename C:\Rips\The Pineapple Thief - 2009 - The Dawn Raids - Volume 2\01 Tightly Wound - Acoustic Version.wav
Pre-gap length 0:00:02.00
Peak level 98.8 %
Track quality 100.0 %
Test CRC 29326676
Copy CRC 29326676
Track not present in AccurateRip database
Copy OK
Track 2
Filename C:\Rips\The Pineapple Thief - 2009 - The Dawn Raids - Volume 2\02 Freefall.wav
Peak level 100.0 %
Track quality 100.0 %
Test CRC 18777332
Copy CRC 18777332
Track not present in AccurateRip database
Copy OK
Track 3
Filename C:\Rips\The Pineapple Thief - 2009 - The Dawn Raids - Volume 2\03 Bitter Day.wav
Peak level 100.0 %
Track quality 100.0 %
Test CRC 65A9BA94
Copy CRC 65A9BA94
Track not present in AccurateRip database
Copy OK
Track 4
Filename C:\Rips\The Pineapple Thief - 2009 - The Dawn Raids - Volume 2\04 Second Chance.wav
Peak level 100.0 %
Track quality 100.0 %
Test CRC BEDC212D
Copy CRC BEDC212D
Track not present in AccurateRip database
Copy OK
None of the tracks are present in the AccurateRip database
No errors occurred
End of status report

CUE

REM GENRE "Progressive Rock"
REM DATE 2009
REM DISCID 3104FF04
REM COMMENT "ExactAudioCopy v0.99pb4"
PERFORMER "The Pineapple Thief"
TITLE "The Dawn Raids - Volume 2"
FILE "01 Tightly Wound - Acoustic Version.wav" WAVE
TRACK 01 AUDIO
TITLE "Tightly Wound - Acoustic Version"
PERFORMER "The Pineapple Thief"
INDEX 01 00:00:00
FILE "02 Freefall.wav" WAVE
TRACK 02 AUDIO
TITLE "Freefall"
PERFORMER "The Pineapple Thief"
INDEX 01 00:00:00
FILE "03 Bitter Day.wav" WAVE
TRACK 03 AUDIO
TITLE "Bitter Day"
PERFORMER "The Pineapple Thief"
INDEX 01 00:00:00
FILE "04 Second Chance.wav" WAVE
TRACK 04 AUDIO
TITLE "Second Chance"
PERFORMER "The Pineapple Thief"
INDEX 01 00:00:00
Доп. информация:

About

The Pineapple Thief return with two four track EPs, entitled The Dawn Raids. The EPs will be available as limited edition CDs. The CDs will be strictly limited to 2000 copies of each. In addition to two new versions of the track ‘Tightly Wound’ the EPs feature also several unreleased tracks. Volume 2 features 'Bitter Day' a track specially written for this release and 'Freefall', a previously unreleased track but a live favourite, along with 'Second Chance' which was previously available on a digital only EP.
http://www.pineapplethief.com

If you like the topic, please click share to help develop our site.

To download the file disable ad blocking, and reload the page.

disable adblock How to disable ad blocking?

Download by magnet link 130 MB Download Torrent

Login using:

Similar topics



   
Current time is: 27-May 02:01 :: All times are UTC + 3