The Pineapple Thief - 137
Жанр: Progressive Rock
Год выпуска диска: 2001
Производитель диска: Cyclops CYCL106
Аудио кодек: FLAC
Тип рипа: tracks+.cue
Битрейт аудио: lossless
Продолжительность: 01:11:28
Трэклист:
01. Lay on the Tracks : 4:45
02. Perpetual Night Shift : 5:29
03. Kid Chameleon : 6:57
04. Incubate : 3:28
05. Doppler : 7:33
06. Ster : 4:05
07. Release the Tether : 5:09
08. How Did We Find Our Way? : 3:54
09. 137 : 5:45
10. Preserve : 5:21
11. Warm Me : 3:37
12. PVS : 11:30
13. MD One : 3:56

Rip by macwarriorx

X Lossless Decoder version 20091212 (114.6)
XLD extraction logfile from 2009-12-21 03:24:51 -0500
The Pineapple Thief / 137
Used drive : MATSHITA DVD-R UJ-857D (revision KCVB)
Use cdparanoia mode : YES (CDParanoia III 10.2 engine)
Disable audio cache : OK for the drive with cache less than 2750KB
Make use of C2 pointers : NO
Read offset correction : 102
Max retry count : 100
TOC of the extracted CD
Track | Start | Length | Start sector | End sector
---------------------------------------------------------
1 | 00:00:00 | 04:44:57 | 0 | 21356
2 | 04:44:57 | 05:28:43 | 21357 | 45999
3 | 10:13:25 | 06:56:59 | 46000 | 77258
4 | 17:10:09 | 03:27:38 | 77259 | 92821
5 | 20:37:47 | 07:33:26 | 92822 | 126822
6 | 28:10:73 | 04:05:31 | 126823 | 145228
7 | 32:16:29 | 05:09:26 | 145229 | 168429
8 | 37:25:55 | 03:54:34 | 168430 | 186013
9 | 41:20:14 | 05:44:65 | 186014 | 211878
10 | 47:05:04 | 05:20:49 | 211879 | 235927
11 | 52:25:53 | 03:36:51 | 235928 | 252178
12 | 56:02:29 | 11:29:49 | 252179 | 303902
13 | 67:32:03 | 03:56:33 | 303903 | 321635
List of alternate offset correction values
# | Absolute | Relative | Confidence
------------------------------------------
1 | -544 | -646 | 4
2 | -561 | -663 | 4
All Tracks
Album gain : -9.46 dB
Peak : 1.000000
Track 01
Filename : /XLD/01 - Lay on the Tracks.flac
/XLD/01 - Lay on the Tracks.mp3
Track gain : -9.53 dB
Peak : 1.000000
CRC32 hash (test run) : 6F3DA061
CRC32 hash : 6F3DA061
CRC32 hash (skip zero) : DBBC8277
AccurateRip signature : 3179AC49
->Accurately ripped! (confidence 4)
(matched with the different offset correction value;
calculated using an additional offset of -663;
the signature after correction is: B7DF8234)
Statistics
Read error : 0
Skipped (treated as error) : 0
Edge jitter error (maybe fixed) : 0
Atom jitter error (maybe fixed) : 0
Drift error (maybe fixed) : 0
Dropped bytes error (maybe fixed) : 0
Duplicated bytes error (maybe fixed) : 0
Inconsistency in error sectors : 0
Track 02
Filename : /XLD/02 - Perpetual Night Shift.flac
/XLD/02 - Perpetual Night Shift.mp3
Track gain : -8.43 dB
Peak : 1.000000
CRC32 hash (test run) : D4F55196
CRC32 hash : D4F55196
CRC32 hash (skip zero) : 2882AF2E
AccurateRip signature : CC3EC78F
->Accurately ripped! (confidence 4)
(matched with the different offset correction value;
calculated using an additional offset of -663;
the signature after correction is: 1D7EC50D)
Statistics
Read error : 0
Skipped (treated as error) : 0
Edge jitter error (maybe fixed) : 0
Atom jitter error (maybe fixed) : 0
Drift error (maybe fixed) : 0
Dropped bytes error (maybe fixed) : 0
Duplicated bytes error (maybe fixed) : 0
Inconsistency in error sectors : 0
Track 03
Filename : /XLD/03 - Kid Chameleon.flac
/XLD/03 - Kid Chameleon.mp3
Track gain : -10.32 dB
Peak : 1.000000
CRC32 hash (test run) : 76284F96
CRC32 hash : 76284F96
CRC32 hash (skip zero) : 50B859C0
AccurateRip signature : 6DAEB65C
->Accurately ripped! (confidence 4)
(matched with the different offset correction value;
calculated using an additional offset of -663;
the signature after correction is: 84C4F413)
Statistics
Read error : 0
Skipped (treated as error) : 0
Edge jitter error (maybe fixed) : 0
Atom jitter error (maybe fixed) : 0
Drift error (maybe fixed) : 0
Dropped bytes error (maybe fixed) : 0
Duplicated bytes error (maybe fixed) : 0
Inconsistency in error sectors : 0
Track 04
Filename : /XLD/04 - Incubate.flac
/XLD/04 - Incubate.mp3
Track gain : -8.39 dB
Peak : 1.000000
CRC32 hash (test run) : A4BC98E3
CRC32 hash : A4BC98E3
CRC32 hash (skip zero) : 38D701AB
AccurateRip signature : 58040772
->Accurately ripped! (confidence 4)
(matched with the different offset correction value;
calculated using an additional offset of -663;
the signature after correction is: E91E3DA5)
Statistics
Read error : 0
Skipped (treated as error) : 0
Edge jitter error (maybe fixed) : 0
Atom jitter error (maybe fixed) : 0
Drift error (maybe fixed) : 0
Dropped bytes error (maybe fixed) : 0
Duplicated bytes error (maybe fixed) : 0
Inconsistency in error sectors : 0
Track 05
Filename : /XLD/05 - Doppler.flac
/XLD/05 - Doppler.mp3
Track gain : -8.97 dB
Peak : 1.000000
CRC32 hash (test run) : 317A7DE0
CRC32 hash : 317A7DE0
CRC32 hash (skip zero) : FC26D1F3
AccurateRip signature : 3B5CE270
->Accurately ripped! (confidence 4)
(matched with the different offset correction value;
calculated using an additional offset of -646;
the signature after correction is: 4EC60E6E)
Statistics
Read error : 0
Skipped (treated as error) : 0
Edge jitter error (maybe fixed) : 0
Atom jitter error (maybe fixed) : 0
Drift error (maybe fixed) : 0
Dropped bytes error (maybe fixed) : 0
Duplicated bytes error (maybe fixed) : 0
Inconsistency in error sectors : 0
Track 06
Filename : /XLD/06 - Ster.flac
/XLD/06 - Ster.mp3
Track gain : -9.27 dB
Peak : 1.000000
CRC32 hash (test run) : B17EFB10
CRC32 hash : B17EFB10
CRC32 hash (skip zero) : 768354F2
AccurateRip signature : DCB4308C
->Accurately ripped! (confidence 4)
(matched with the different offset correction value;
calculated using an additional offset of -663;
the signature after correction is: BCA0BDAB)
Statistics
Read error : 0
Skipped (treated as error) : 0
Edge jitter error (maybe fixed) : 0
Atom jitter error (maybe fixed) : 0
Drift error (maybe fixed) : 0
Dropped bytes error (maybe fixed) : 0
Duplicated bytes error (maybe fixed) : 0
Inconsistency in error sectors : 0
Track 07
Filename : /XLD/07 - Release the Tether.flac
/XLD/07 - Release the Tether.mp3
Track gain : -9.80 dB
Peak : 1.000000
CRC32 hash (test run) : 4AA7FA02
CRC32 hash : 4AA7FA02
CRC32 hash (skip zero) : F89F2643
AccurateRip signature : 336B40C6
->Accurately ripped! (confidence 4)
(matched with the different offset correction value;
calculated using an additional offset of -663;
the signature after correction is: 98322D59)
Statistics
Read error : 0
Skipped (treated as error) : 0
Edge jitter error (maybe fixed) : 1
Atom jitter error (maybe fixed) : 1
Drift error (maybe fixed) : 0
Dropped bytes error (maybe fixed) : 0
Duplicated bytes error (maybe fixed) : 0
Inconsistency in error sectors : 0
Track 08
Filename : /XLD/08 - How Did We Find Our Way?.flac
/XLD/08 - How Did We Find Our Way?.mp3
Track gain : -8.57 dB
Peak : 0.999969
CRC32 hash (test run) : 4362BAE2
CRC32 hash : 4362BAE2
CRC32 hash (skip zero) : 2904D8DD
AccurateRip signature : ECC2BF08
->Accurately ripped! (confidence 4)
(matched with the different offset correction value;
calculated using an additional offset of -646;
the signature after correction is: D1203A31)
Statistics
Read error : 0
Skipped (treated as error) : 0
Edge jitter error (maybe fixed) : 0
Atom jitter error (maybe fixed) : 0
Drift error (maybe fixed) : 0
Dropped bytes error (maybe fixed) : 0
Duplicated bytes error (maybe fixed) : 0
Inconsistency in error sectors : 0
Track 09
Filename : /XLD/09 - 137.flac
/XLD/09 - 137.mp3
Track gain : -8.72 dB
Peak : 1.000000
CRC32 hash (test run) : 057203BE
CRC32 hash : 057203BE
CRC32 hash (skip zero) : 07A7A345
AccurateRip signature : 567EFCD2
->Accurately ripped! (confidence 4)
(matched with the different offset correction value;
calculated using an additional offset of -663;
the signature after correction is: 0AC39BC4)
Statistics
Read error : 0
Skipped (treated as error) : 0
Edge jitter error (maybe fixed) : 0
Atom jitter error (maybe fixed) : 0
Drift error (maybe fixed) : 0
Dropped bytes error (maybe fixed) : 0
Duplicated bytes error (maybe fixed) : 0
Inconsistency in error sectors : 0
Track 10
Filename : /XLD/10 - Preserve.flac
/XLD/10 - Preserve.mp3
Track gain : -9.68 dB
Peak : 1.000000
CRC32 hash (test run) : DECD1E53
CRC32 hash : DECD1E53
CRC32 hash (skip zero) : F2888AB7
AccurateRip signature : 4BEBB105
->Accurately ripped! (confidence 4)
(matched with the different offset correction value;
calculated using an additional offset of -663;
the signature after correction is: F6CEDD9A)
Statistics
Read error : 0
Skipped (treated as error) : 0
Edge jitter error (maybe fixed) : 0
Atom jitter error (maybe fixed) : 0
Drift error (maybe fixed) : 0
Dropped bytes error (maybe fixed) : 0
Duplicated bytes error (maybe fixed) : 0
Inconsistency in error sectors : 0
Track 11
Filename : /XLD/11 - Warm Me.flac
/XLD/11 - Warm Me.mp3
Track gain : -10.09 dB
Peak : 1.000000
CRC32 hash (test run) : 37ED6FDF
CRC32 hash : 37ED6FDF
CRC32 hash (skip zero) : EC75841A
AccurateRip signature : 851951DE
->Accurately ripped! (confidence 4)
(matched with the different offset correction value;
calculated using an additional offset of -663;
the signature after correction is: 12505825)
Statistics
Read error : 0
Skipped (treated as error) : 0
Edge jitter error (maybe fixed) : 0
Atom jitter error (maybe fixed) : 0
Drift error (maybe fixed) : 0
Dropped bytes error (maybe fixed) : 0
Duplicated bytes error (maybe fixed) : 0
Inconsistency in error sectors : 0
Track 12
Filename : /XLD/12 - PVS.flac
/XLD/12 - PVS.mp3
Track gain : -9.10 dB
Peak : 1.000000
CRC32 hash (test run) : DBEFEADA
CRC32 hash : DBEFEADA
CRC32 hash (skip zero) : 1FF3C419
AccurateRip signature : BFBDCBE1
->Accurately ripped! (confidence 4)
(matched with the different offset correction value;
calculated using an additional offset of -646;
the signature after correction is: 008B2E2B)
Statistics
Read error : 0
Skipped (treated as error) : 0
Edge jitter error (maybe fixed) : 0
Atom jitter error (maybe fixed) : 0
Drift error (maybe fixed) : 0
Dropped bytes error (maybe fixed) : 0
Duplicated bytes error (maybe fixed) : 0
Inconsistency in error sectors : 0
Track 13
Filename : /XLD/13 - MD One.flac
/XLD/13 - MD One.mp3
Track gain : -9.45 dB
Peak : 1.000000
CRC32 hash (test run) : 9592CBCC
CRC32 hash : 9592CBCC
CRC32 hash (skip zero) : F72DAFDF
AccurateRip signature : F1AFD87C
->Accurately ripped! (confidence 3)
(matched with the different offset correction value;
calculated using an additional offset of -663;
the signature after correction is: 48CF465D)
Statistics
Read error : 0
Skipped (treated as error) : 0
Edge jitter error (maybe fixed) : 0
Atom jitter error (maybe fixed) : 0
Drift error (maybe fixed) : 0
Dropped bytes error (maybe fixed) : 0
Duplicated bytes error (maybe fixed) : 0
Inconsistency in error sectors : 0
No errors occurred
End of status report

CUE

TITLE "137"
PERFORMER "The Pineapple Thief"
REM GENRE "Rock"
REM DATE "2001"
FILE "01 - Lay on the Tracks.wav" WAVE
TRACK 01 AUDIO
TITLE "Lay on the Tracks"
INDEX 01 00:00:00
FILE "02 - Perpetual Night Shift.wav" WAVE
TRACK 02 AUDIO
TITLE "Perpetual Night Shift"
INDEX 01 00:00:00
FILE "03 - Kid Chameleon.wav" WAVE
TRACK 03 AUDIO
TITLE "Kid Chameleon"
INDEX 01 00:00:00
FILE "04 - Incubate.wav" WAVE
TRACK 04 AUDIO
TITLE "Incubate"
INDEX 01 00:00:00
FILE "05 - Doppler.wav" WAVE
TRACK 05 AUDIO
TITLE "Doppler"
INDEX 01 00:00:00
FILE "06 - Ster.wav" WAVE
TRACK 06 AUDIO
TITLE "Ster"
INDEX 01 00:00:00
FILE "07 - Release the Tether.wav" WAVE
TRACK 07 AUDIO
TITLE "Release the Tether"
INDEX 01 00:00:00
FILE "08 - How Did We Find Our Way?.wav" WAVE
TRACK 08 AUDIO
TITLE "How Did We Find Our Way?"
INDEX 01 00:00:00
FILE "09 - 137.wav" WAVE
TRACK 09 AUDIO
TITLE "137"
INDEX 01 00:00:00
FILE "10 - Preserve.wav" WAVE
TRACK 10 AUDIO
TITLE "Preserve"
INDEX 01 00:00:00
FILE "11 - Warm Me.wav" WAVE
TRACK 11 AUDIO
TITLE "Warm Me"
INDEX 01 00:00:00
FILE "12 - PVS.wav" WAVE
TRACK 12 AUDIO
TITLE "PVS"
INDEX 01 00:00:00
FILE "13 - MD One.wav" WAVE
TRACK 13 AUDIO
TITLE "MD One"
INDEX 01 00:00:00
Доп. информация:
http://www.pineapplethief.com

If you like the topic, please click share to help develop our site.

To download the file disable ad blocking, and reload the page.

disable adblock How to disable ad blocking?

Download by magnet link 407 MB Download Torrent

Login using:

Similar topics



   
Current time is: 25-May 18:25 :: All times are UTC + 3