Gong Maison - Live At The Fridge London
Жанр: Progressive/Canterbury/Psychedelia
Год выпуска диска: 2008
Аудио кодек: FLAC
Тип рипа: image+.cue
Битрейт аудио: lossless
Продолжительность: 01:15:15
Трэклист:
01. Fohat Digs Holes in Space
02. Banana Award
03. Pretty Miss Titty
04. Est-ce Que Je Suis
05. Radio Gnome
06. Oh Mother/Longshanks
07. Dynamite
08. Shepherd of the Clouds
09. Kaliplege
10. Selene
11. You and I

Log EAC

Exact Audio Copy V0.99 prebeta 5 from 4. May 2009
EAC extraction logfile from 24. January 2010, 21:57
Gong Maison / Live At The Fridge
Used drive : SONY DVD RW DRU-840A Adapter: 1 ID: 0
Read mode : Secure
Utilize accurate stream : Yes
Defeat audio cache : Yes
Make use of C2 pointers : No
Read offset correction : 6
Overread into Lead-In and Lead-Out : No
Fill up missing offset samples with silence : Yes
Delete leading and trailing silent blocks : No
Null samples used in CRC calculations : Yes
Used interface : Native Win32 interface for Win NT & 2000
Used output format : User Defined Encoder
Selected bitrate : 768 kBit/s
Quality : High
Add ID3 tag : No
Command line compressor : C:\Program Files\Exact Audio Copy\FLAC\FLAC.EXE
Additional command line options : -8 -V %s
TOC of the extracted CD
Track | Start | Length | Start sector | End sector
---------------------------------------------------------
1 | 0:00.00 | 9:24.00 | 0 | 42299
2 | 9:24.00 | 0:31.00 | 42300 | 44624
3 | 9:55.00 | 3:15.00 | 44625 | 59249
4 | 13:10.00 | 7:31.00 | 59250 | 93074
5 | 20:41.00 | 4:15.00 | 93075 | 112199
6 | 24:56.00 | 9:16.00 | 112200 | 153899
7 | 34:12.00 | 3:39.00 | 153900 | 170324
8 | 37:51.00 | 11:49.66 | 170325 | 223565
9 | 49:40.66 | 7:42.15 | 223566 | 258230
10 | 57:23.06 | 12:06.00 | 258231 | 312680
11 | 69:29.06 | 5:17.16 | 312681 | 336471
12 | 74:46.22 | 0:29.53 | 336472 | 338699
Range status and errors
Selected range
Filename D:\_music\Gong Maison - Live At The Fridge.wav
Peak level 100.0 %
Range quality 99.9 %
Copy CRC 2EC4259E
Copy OK
No errors occurred
AccurateRip summary
Track 1 not present in database
Track 2 not present in database
Track 3 not present in database
Track 4 not present in database
Track 5 not present in database
Track 6 not present in database
Track 7 not present in database
Track 8 not present in database
Track 9 not present in database
Track 10 not present in database
Track 11 not present in database
Track 12 not present in database
None of the tracks are present in the AccurateRip database
End of status report
Доп. информация:
Этот бонус ДВД выкладывается в поддержку вот этой раздачи http://********.org/forum/viewtopic.php?t=917632 добряка ClockWorkRussia, а то там в треде народ чёй-та стремается, настоящий ли это концерт или типа самопал.
Всё самое что ни на есть genuine, релиз выпущен в виде ДВД+СД, зырьте обложки - выкладываю вместе с диском. Отсканировал заодно и болванку ДВД - для особо сомневающихся добряков...
Источник: взято с полочки в шкафчике.

If you like the topic, please click share to help develop our site.

To download the file disable ad blocking, and reload the page.

disable adblock How to disable ad blocking?

Download by magnet link 510 MB Download Torrent

Login using:

Similar topics



   
Current time is: 25-May 19:10 :: All times are UTC + 3