Haino Keiji & Yoshida Tatsuya - Until Water Grasps Flame
Жанр: Psychedelic Rock, Avant Prog, Free Improvisation
Год выпуска диска: 2002
Производитель диска: Hong Kong
Аудио кодек: FLAC
Тип рипа: image+.cue
Битрейт аудио: lossless
Продолжительность: 01:04:15
Трэклист:
1 That Which Is Prepared Is A Psychiatrist's Frenzy 2:12
2 Decision After Gentle Use 6:42
3 At The Instant Of Saying "The Fourth" 7:40
4 Signs Of Gratitude For 5Hz 4:47
5 A Droplet That Enervates The Point Of Connection 2:57
6 Especially Since The Result Reads That LHNZ Should Have Been Completed 5:16
7 Making The Excuse That "Of Course It Is All For You" 6:15
8 A Voiceprint That Longs To Display Evidence That It Is Over 2:03
9 Those Points Of Difference With Forthrightness Which Oft Come To Mind When Recollecting 4:49
10 That Atmosphere When Discrimination Is Accepted 4:28
11 At The Instant When One Thinks To Oneself "No Way", What Percent Is Nostalgia? 12:18
12 This Vanishing Method Of Grieving 4:42

Log

Exact Audio Copy V0.99 prebeta 5 from 4. May 2009
EAC extraction logfile from 8. July 2009, 20:59
Keiji Haino and Tatsuya Yoshida / Until Water Grasps Flame
Used drive : LITE-ON COMBO SOHC-5235K Adapter: 0 ID: 1
Read mode : Secure
Utilize accurate stream : Yes
Defeat audio cache : Yes
Make use of C2 pointers : No
Read offset correction : 6
Overread into Lead-In and Lead-Out : No
Fill up missing offset samples with silence : Yes
Delete leading and trailing silent blocks : No
Null samples used in CRC calculations : No
Used interface : Native Win32 interface for Win NT & 2000
Used output format : Internal WAV Routines
Sample format : 44.100 Hz; 16 Bit; Stereo
TOC of the extracted CD
Track | Start | Length | Start sector | End sector
---------------------------------------------------------
1 | 0:00.00 | 2:12.47 | 0 | 9946
2 | 2:12.47 | 6:42.65 | 9947 | 40161
3 | 8:55.37 | 7:40.70 | 40162 | 74731
4 | 16:36.32 | 4:47.03 | 74732 | 96259
5 | 21:23.35 | 2:57.41 | 96260 | 109575
6 | 24:21.01 | 5:16.49 | 109576 | 133324
7 | 29:37.50 | 6:15.12 | 133325 | 161461
8 | 35:52.62 | 2:03.13 | 161462 | 170699
9 | 37:56.00 | 4:49.58 | 170700 | 192432
10 | 42:45.58 | 4:28.44 | 192433 | 212576
11 | 47:14.27 | 12:18.23 | 212577 | 267949
12 | 59:32.50 | 4:42.01 | 267950 | 289100
Range status and errors
Selected range
Filename C:\Documents and Settings\Administrator\My Documents\Keiji Haino and Tatsuya Yoshida - Until Water Grasps Flame.wav
Peak level 99.6 %
Range quality 99.9 %
Copy CRC 1C652FE1
Copy OK
No errors occurred
End of status report
Доп. информация:

Об исполнителе

The first collaboration of HAINO Keiji and YOSHIDA Tatsuya, multitrack recording from the live concert in April 2000. The alternation of high density-high tension G + Dr tracks and ethnic musical instruments tracks will give you a shocking experience of unknown melody and timbre.

If you like the topic, please click share to help develop our site.

To download the file disable ad blocking, and reload the page.

disable adblock How to disable ad blocking?

Download by magnet link 392 MB Download Torrent

Login using:

Similar topics

(Psychedelic rock) The End - Introspection - 1969, MP3, 320 kbps
 82 MB   0 | 0   13-May-19 02:55   0


   
Current time is: 27-May 02:32 :: All times are UTC + 3