Taproban - Posidonian Fields
Жанр/Стиль: Progressive Symphonic Rock, Art Rock
Год выпуска диска: 2006
Производитель диска: Mellow Records (MMP488)
Страна исполнителя: Italy
Аудио кодек: FLAC
Тип рипа: tracks+.cue
Источники: vknish и sole-survivor
Битрейт аудио: lossless
Продолжительность: 00:49:53
Трэклист:
01. Chapter one: Immersion - EvapZis (02:46)
02. Chapter one: Immersion - Immersion (06:51)
03. Chapter one: Immersion - Caronte's ship imponderability (03:44)
04. Chapter two: Suspension - Riding in Posidonian Fields (02:27)
05. Chapter two: Suspension - Entwinings (02:12)
06. Chapter two: Suspension - Suspension (04:18)
07. Chapter two: Suspension - Octopus! (06:27)
08. Chapter three: Oblivion - Uncontrolled dreams (08:52)
09. Chapter three: Oblivion - No return (06:11)
10. Chapter three: Oblivion - Farewell (including:"...Rebirth") (06:05)

Log EAC

Exact Audio Copy V0.99 prebeta 4 from 23. January 2008
EAC extraction logfile from 16. May 2008, 12:59
Taproban / Posidonian Fileds
Used drive : HL-DT-STDVD-RW GCA-4080N Adapter: 1 ID: 0
Read mode : Secure
Utilize accurate stream : Yes
Defeat audio cache : Yes
Make use of C2 pointers : No
Read offset correction : 667
Overread into Lead-In and Lead-Out : No
Fill up missing offset samples with silence : Yes
Delete leading and trailing silent blocks : No
Null samples used in CRC calculations : Yes
Used interface : Native Win32 interface for Win NT & 2000
Gap handling : Appended to previous track
Used output format : User Defined Encoder
Selected bitrate : 32 kBit/s
Quality : High
Add ID3 tag : No
Command line compressor : C:\Program Files\Exact Audio Copy\Flac\flac.exe
Additional command line options : -5 -V -T "ARTIST=%a" -T "TITLE=%t" -T "ALBUM=%g" -T "DATE=%y" -T "TRACKNUMBER=%n" -T "GENRE=%m" -T "COMMENT=EAC Flac 1.1.2 -5" %s
TOC of the extracted CD
Track | Start | Length | Start sector | End sector
---------------------------------------------------------
1 | 0:02.00 | 2:46.51 | 150 | 12650
2 | 2:48.51 | 6:51.69 | 12651 | 43544
3 | 9:40.45 | 3:44.29 | 43545 | 60373
4 | 13:24.74 | 2:27.15 | 60374 | 71413
5 | 15:52.14 | 2:12.05 | 71414 | 81318
6 | 18:04.19 | 4:18.37 | 81319 | 100705
7 | 22:22.56 | 6:27.20 | 100706 | 129750
8 | 28:50.01 | 8:52.65 | 129751 | 169715
9 | 37:42.66 | 6:11.55 | 169716 | 197595
10 | 43:54.46 | 6:05.29 | 197596 | 224999
Track 1
Filename C:\Taproban - Posidonian Fields\01 - Chapter one_ Immersion - EvapZis.wav
Pre-gap length 0:00:04.00
Peak level 100.0 %
Track quality 99.9 %
Test CRC 60BE7ABD
Copy CRC 60BE7ABD
Track not present in AccurateRip database
Copy OK
Track 2
Filename C:\Taproban - Posidonian Fields\02 - Chapter one_ Immersion - Immersion.wav
Peak level 100.0 %
Track quality 100.0 %
Test CRC 0697C9D2
Copy CRC 0697C9D2
Track not present in AccurateRip database
Copy OK
Track 3
Filename C:\Taproban - Posidonian Fields\03 - Chapter one_ Immersion - Caronte's Ship Imponderability.wav
Peak level 100.0 %
Track quality 100.0 %
Test CRC 3571970B
Copy CRC 3571970B
Track not present in AccurateRip database
Copy OK
Track 4
Filename C:\Taproban - Posidonian Fields\04 - Chapter Two_ Suspension - Riding In Posidonian Fields.wav
Peak level 100.0 %
Track quality 100.0 %
Test CRC 98E2DDD9
Copy CRC 98E2DDD9
Track not present in AccurateRip database
Copy OK
Track 5
Filename C:\Taproban - Posidonian Fields\05 - Chapter Two_ Suspension - Entwinings.wav
Peak level 100.0 %
Track quality 100.0 %
Test CRC 7F2F2630
Copy CRC 7F2F2630
Track not present in AccurateRip database
Copy OK
Track 6
Filename C:\Taproban - Posidonian Fields\06 - Chapter Two_ Suspension - Suspension.wav
Pre-gap length 0:00:00.01
Peak level 99.9 %
Track quality 100.0 %
Test CRC 2BB8C6E4
Copy CRC 2BB8C6E4
Track not present in AccurateRip database
Copy OK
Track 7
Filename C:\Taproban - Posidonian Fields\07 - Chapter Two_ Suspension - Ocotpus.wav
Peak level 100.0 %
Track quality 100.0 %
Test CRC 1B654698
Copy CRC 1B654698
Track not present in AccurateRip database
Copy OK
Track 8
Filename C:\Taproban - Posidonian Fields\08 - Chapter Three_ Oblivion - Uncontrolled Dreams.wav
Peak level 100.0 %
Track quality 100.0 %
Test CRC 8FB79C53
Copy CRC 8FB79C53
Track not present in AccurateRip database
Copy OK
Track 9
Filename C:\Taproban - Posidonian Fields\09 - Chapter Three_ Oblivion - No Return.wav
Peak level 100.0 %
Track quality 100.0 %
Test CRC 34FCE7E7
Copy CRC 34FCE7E7
Track not present in AccurateRip database
Copy OK
Track 10
Filename C:\Taproban - Posidonian Fields\10 - Chapter Three_ Oblivion - Farewell (Including _...Rebirth_).wav
Peak level 99.9 %
Track quality 100.0 %
Test CRC D6D69EE4
Copy CRC D6D69EE4
Track not present in AccurateRip database
Copy OK
None of the tracks are present in the AccurateRip database
No errors occurred
End of status report

CUE

REM GENRE Progressive
REM DATE 2006
REM DISCID 820BB60A
REM COMMENT "ExactAudioCopy v0.99pb4"
PERFORMER "Taproban"
TITLE "Posidonian Fields"
FILE "01 - Chapter one_ Immersion - Evapzis.wav" WAVE
TRACK 01 AUDIO
TITLE "Chapter one: Immersion - Evapzis"
PERFORMER "Taproban"
PREGAP 00:02:00
INDEX 01 00:00:00
FILE "02 - Chapter one_ Immersion - Immersion.wav" WAVE
TRACK 02 AUDIO
TITLE "Chapter one: Immersion - Immersion"
PERFORMER "Taproban"
INDEX 01 00:00:00
FILE "03 - Chapter one_ Immersion - CaronteS ship imponderability.wav" WAVE
TRACK 03 AUDIO
TITLE "Chapter one: Immersion - Caronte's ship imponderability"
PERFORMER "Taproban"
INDEX 01 00:00:00
FILE "04 - Chapter two- Suspension - Riding in Posidonian Fields.wav" WAVE
TRACK 04 AUDIO
TITLE "Chapter two: Suspension - Riding in Posidonian Fields"
PERFORMER "Taproban"
INDEX 01 00:00:00
FILE "05 - Chapter two_ Suspension - Entwinings.wav" WAVE
TRACK 05 AUDIO
TITLE "Chapter two: Suspension - Entwinings"
PERFORMER "Taproban"
INDEX 01 00:00:00
TRACK 06 AUDIO
TITLE "Chapter two: Suspension - Suspension"
PERFORMER "Taproban"
INDEX 00 02:12:04
FILE "06 - Chapter two_ Suspension - Suspension.wav" WAVE
INDEX 01 00:00:00
FILE "07 - Chapter two_ Suspension - Octopus.wav" WAVE
TRACK 07 AUDIO
TITLE "Chapter two: Suspension - Octopus!"
PERFORMER "Taproban"
INDEX 01 00:00:00
FILE "08 - Chapter three_ Oblivion - Uncontrolled dreams.wav" WAVE
TRACK 08 AUDIO
TITLE "Chapter three: Oblivion - Uncontrolled dreams"
PERFORMER "Taproban"
INDEX 01 00:00:00
FILE "09 - Chapter three_ Oblivion - No return.wav" WAVE
TRACK 09 AUDIO
TITLE "Chapter three: Oblivion - No return"
PERFORMER "Taproban"
INDEX 01 00:00:00
FILE "10 - Chapter three_ Oblivion - Farewell (including Rebirth).wav" WAVE
TRACK 10 AUDIO
TITLE "Chapter three: Oblivion - Farewell (including:_...Rebirth_)"
PERFORMER "Taproban"
INDEX 01 00:00:00
Доп. информация:
Это третий альбом от итальянского трио (бас, ударные, клавишные) с английским вокалом (небольшой итальянский акцент не особо напрягает). Музыка чуть напоминает раннее творчество итальянской симфопроговой группы Le Orme, но звучание не настолько "рафинированное". Возможно потребуется некоторое усилие, чтобы войти в "мир" Taproban (что, впрочем, может быть с любой музыкой в стиле прог-рок...).
© evc - по информации с Progarchives
также на трекере есть два предыдущих альбома группы ->
(Art Rock) Taproban "Ogni Pensiero Vola" - 2002, FLAC (image+.cue), lossless
(Symphonic Prog) Taproban - Outside Nowhere - 2004, FLAC (tracks+.cue), lossless

If you like the topic, please click share to help develop our site.

To download the file disable ad blocking, and reload the page.

disable adblock How to disable ad blocking?

Download by magnet link 316 MB Download Torrent

Login using:

Similar topics



   
Current time is: 25-May 19:13 :: All times are UTC + 3