Dave Bainbridge - Veil Of Gossamer
Жанр: Crossover Prog / Celtic Rock
Носитель: CD
Год выпуска диска: 2004
Страна: United Kingdom
Производитель диска: Open Sky / OPENVP4CD
Аудио кодек: FLAC
Тип рипа: image+.cue
Битрейт аудио: lossless
Продолжительность: 64:27 (1:04:27)
Источник (релизер): свой рип
Наличие сканов в содержимом раздачи: немного
Трэклист:
01. Chanting Waves (2:17)
02. Over The Waters (7:29)
03. Veil Of Gossamer (4:56)
04. The Seen And The Unseen (2:17)
The Everlasting Hills (19:47)
05. Part 1 (5:37)
06. Part 2 (2:34)
07. Part 3 (3:55)
08. Part 4 (2:54)
09. Part 5 (4:47)
10. Seahouses (3:06)
11. Until The Tide Turns (4:30)
12. The Homeward Race (5:26)
Star-Filled Skies (14:49)
13. Part 1 (3:40)
14. Part 2 (2:40)
15. Part 3 (3:47)
16. Part 4 (4:42)
Состав:
- Dave Bainbridge / acoustic and electric guitars, piano, keyboards, bouzouki, mandolin, autoharp, small harp, balafon, varied percussion
- Joanne Hogg / vocals
- Rachel Jones / vocals
- Mae McKenna / vocals
- Chris Hale / vocals
- Troy Donockley / vocals, Uillean pipes, low and tin whistles
- Frank van Essen / drums
- Tim Harries / bass guitars
- Pete Fairclough / gongs, cymbals, chimes
- Peter Whitfield / ensemble violins, viola
- William Scofield / solo cello
- Nick Beggs / bass guitars
Доп. информация: http://www.progarchives.com/artist.asp?id=1336

Отчёт EAC

Exact Audio Copy V0.99 prebeta 5 from 4. May 2009
Отчёт EAC об извлечении, выполненном 29. июля 2015, 12:08
Dave Bainbridge / Veil Of Gossamer
Дисковод: PLEXTOR DVDR PX-760A Adapter: 2 ID: 0
Режим чтения : Достоверность
Использование точного потока : Да
Отключение кэша аудио : Да
Использование указателей C2 : Нет
Коррекция смещения при чтении : 30
Способность читать области Lead-in и Lead-out : Да
Заполнение пропущенных сэмплов тишиной : Да
Удаление блоков с тишиной в начале и конце : Нет
При вычислениях CRC использовались нулевые сэмплы : Да
Интерфейс : Встроенный Win32-интерфейс для Win NT/2000
Выходной формат : Пользовательский кодировщик
Выбранный битрейт : 32 kBit/s
Качество : Низкий
Добавление ID3-тэга : Нет
Утилита сжатия : C:\Program Files\Exact Audio Copy\Flac\flac.exe
Дополнительные параметры : -8 -V -T "Artist=%a" -T "Album=%g" -T "Date=%y" -T "Genre=%m" -T "COMMENT=EAC FLAC -8" %s
TOC извлечённого CD
Трек | Старт | Длительность | Начальный сектор | Конечный сектор
---------------------------------------------------------------------
1 | 0:00.00 | 2:17.21 | 0 | 10295
2 | 2:17.21 | 7:29.54 | 10296 | 44024
3 | 9:47.00 | 4:55.51 | 44025 | 66200
4 | 14:42.51 | 2:18.17 | 66201 | 76567
5 | 17:00.68 | 5:36.15 | 76568 | 101782
6 | 22:37.08 | 2:34.28 | 101783 | 113360
7 | 25:11.36 | 3:54.41 | 113361 | 130951
8 | 29:06.02 | 2:54.36 | 130952 | 144037
9 | 32:00.38 | 4:36.54 | 144038 | 164791
10 | 36:37.17 | 3:06.62 | 164792 | 178803
11 | 39:44.04 | 4:29.47 | 178804 | 199025
12 | 44:13.51 | 5:25.43 | 199026 | 223443
13 | 49:39.19 | 3:39.49 | 223444 | 239917
14 | 53:18.68 | 2:40.49 | 239918 | 251966
15 | 55:59.42 | 3:46.19 | 251967 | 268935
16 | 59:45.61 | 4:41.46 | 268936 | 290056
Характеристики диапазона извлечения и сообщения об ошибках
Выбранный диапазон
Имя файла C:\Program Files\BitComet\Downloads2\Dave Bainbridge - Veil Of Gossamer (2004)\Dave Bainbridge - Veil Of Gossamer.wav
Пиковый уровень 100.0 %
Качество диапазона 100.0 %
CRC копии 64F07A42
Копирование... OK
Ошибок не произошло
AccurateRip: сводка
Трек 1 точное извлечение (доверие 9) [CF5DCB63]
Трек 2 точное извлечение (доверие 9) [F67FC3B0]
Трек 3 точное извлечение (доверие 9) [A3AC597B]
Трек 4 точное извлечение (доверие 9) [152595F8]
Трек 5 точное извлечение (доверие 9) [9E32C83E]
Трек 6 точное извлечение (доверие 9) [07C6A161]
Трек 7 точное извлечение (доверие 9) [AC3ADD73]
Трек 8 точное извлечение (доверие 9) [8F1BDF6D]
Трек 9 точное извлечение (доверие 9) [B86613E6]
Трек 10 точное извлечение (доверие 9) [887A2A5D]
Трек 11 точное извлечение (доверие 10) [97C7A9D9]
Трек 12 точное извлечение (доверие 9) [4E35F3F8]
Трек 13 точное извлечение (доверие 9) [BFA30EC2]
Трек 14 точное извлечение (доверие 9) [D90C8598]
Трек 15 точное извлечение (доверие 7) [E290F4FC]
Трек 16 точное извлечение (доверие 9) [445FCE5C]
Все треки извлечены точно
Конец отчёта

.cue

REM GENRE "Progressive Rock"
REM DATE 2004
REM DISCID F30F1B10
REM COMMENT "ExactAudioCopy v0.99pb5"
CATALOG 0604388643929
PERFORMER "Dave Bainbridge"
TITLE "Veil Of Gossamer"
FILE "Dave Bainbridge - Veil Of Gossamer.flac" WAVE
TRACK 01 AUDIO
TITLE "Chanting Waves"
PERFORMER "Dave Bainbridge"
INDEX 01 00:00:00
TRACK 02 AUDIO
TITLE "Over The Waters"
PERFORMER "Dave Bainbridge"
INDEX 01 02:17:21
TRACK 03 AUDIO
TITLE "Veil Of Gossamer"
PERFORMER "Dave Bainbridge"
INDEX 01 09:47:00
TRACK 04 AUDIO
TITLE "The Seen And The Unseen"
PERFORMER "Dave Bainbridge"
INDEX 01 14:42:51
TRACK 05 AUDIO
TITLE "The Everlasting Hills, Part 1"
PERFORMER "Dave Bainbridge"
INDEX 01 17:00:68
TRACK 06 AUDIO
TITLE "The Everlasting Hills, Part 2"
PERFORMER "Dave Bainbridge"
INDEX 01 22:37:08
TRACK 07 AUDIO
TITLE "The Everlasting Hills, Part 3"
PERFORMER "Dave Bainbridge"
INDEX 01 25:11:36
TRACK 08 AUDIO
TITLE "The Everlasting Hills, Part 4"
PERFORMER "Dave Bainbridge"
INDEX 01 29:06:02
TRACK 09 AUDIO
TITLE "The Everlasting Hills, Part 5"
PERFORMER "Dave Bainbridge"
INDEX 01 32:00:38
TRACK 10 AUDIO
TITLE "Seahouses"
PERFORMER "Dave Bainbridge"
INDEX 00 36:34:40
INDEX 01 36:37:17
TRACK 11 AUDIO
TITLE "Until The Tide Turns"
PERFORMER "Dave Bainbridge"
INDEX 00 39:42:65
INDEX 01 39:44:04
TRACK 12 AUDIO
TITLE "The Homeward Race"
PERFORMER "Dave Bainbridge"
INDEX 01 44:13:51
TRACK 13 AUDIO
TITLE "Star-Filled Skies, Part 1"
PERFORMER "Dave Bainbridge"
INDEX 01 49:39:19
TRACK 14 AUDIO
TITLE "Star-Filled Skies, Part 2"
PERFORMER "Dave Bainbridge"
INDEX 01 53:18:68
TRACK 15 AUDIO
TITLE "Star-Filled Skies, Part 3"
PERFORMER "Dave Bainbridge"
INDEX 01 55:59:42
TRACK 16 AUDIO
TITLE "Star-Filled Skies, Part 4"
PERFORMER "Dave Bainbridge"
INDEX 01 59:45:61
источник: erro

If you like the topic, please click share to help develop our site.

To download the file disable ad blocking, and reload the page.

disable adblock How to disable ad blocking?

Download by magnet link 392 MB Download Torrent

Login using:

Similar topics



   
Current time is: 27-May 02:01 :: All times are UTC + 3