-Thirsty Moon - You'll Never Come Back- Жанр: Progressive Rock, Krautrock, Jazz Rock/Fusion
Носитель: CD (Album, Reissue, Remastered)
Страна-производитель диска (релиза): France
Год издания оригинала: 973, LP Brain #BRAIN 1041
Год переиздания: 2006
Издатель (лейбл): Malesh Records/Long Hair
Номер по каталогу: LHC00053
Страна исполнителя (группы): Germany
Аудио кодек: FLAC (*.flac)
Тип рипа: (tracks + .cue)
Битрейт аудио: lossless
Наличие сканов в содержимом раздачи: full scans, jpeg, 600 dpi
Продолжительность: 56:33
Источник (релизер): Моя коллекция, мой рип

Трэклист:
1. I See You (7:18)
2. Trash Man (14:27)
3. Tune In (5:00)
4. You'll Never Come Back (12:34)
5. Das Fest Der Völker (5:05)
Bonus Track:
6. Music (12:00)

Лог создания рипа (03.03.2011)

Exact Audio Copy V1.0 beta 1 from 15. November 2010
EAC extraction logfile from 3. March 2011, 18:35
Thirsty Moon / You'll Never Come Back
Used drive : _NEC DVD_RW ND-3540A Adapter: 3 ID: 1
Read mode : Secure
Utilize accurate stream : Yes
Defeat audio cache : Yes
Make use of C2 pointers : No
Read offset correction : 48
Overread into Lead-In and Lead-Out : No
Fill up missing offset samples with silence : Yes
Delete leading and trailing silent blocks : No
Null samples used in CRC calculations : Yes
Used interface : Native Win32 interface for Win NT & 2000
Gap handling : Appended to previous track
Used output format : User Defined Encoder
Selected bitrate : 1024 kBit/s
Quality : High
Add ID3 tag : Yes
Command line compressor : C:\Program Files\FLAC\flac.exe
Additional command line options : -6 -V -T "ARTIST=%a" -T "TITLE=%t" -T "ALBUM=%g" -T "DATE=%y" -T "TRACKNUMBER=%n" -T "GENRE=%m" -T "COMMENT=%e" %s -o %d
TOC of the extracted CD
Track | Start | Length | Start sector | End sector
---------------------------------------------------------
1 | 0:00.00 | 7:19.09 | 0 | 32933
2 | 7:19.09 | 14:28.31 | 32934 | 98064
3 | 21:47.40 | 5:01.45 | 98065 | 120684
4 | 26:49.10 | 12:34.56 | 120685 | 177290
5 | 39:23.66 | 5:08.17 | 177291 | 200407
6 | 44:32.08 | 12:00.67 | 200408 | 254474
Track 1
Filename D:\Music\olaf_alien\Thirsty Moon - You'll Never Come Back (1973, Brain-Metronome - 2006, Malesh-Long Hair)\01 - I See You.wav
Pre-gap length 0:00:02.00
Peak level 94.1 %
Extraction speed 5.0 X
Track quality 100.0 %
Test CRC 175CF54E
Copy CRC 175CF54E
Accurately ripped (confidence 2) [0AB39A47]
Copy OK
Track 2
Filename D:\Music\olaf_alien\Thirsty Moon - You'll Never Come Back (1973, Brain-Metronome - 2006, Malesh-Long Hair)\02 - Trash Man.wav
Pre-gap length 0:00:02.00
Peak level 94.1 %
Extraction speed 6.5 X
Track quality 100.0 %
Test CRC 2EC440AA
Copy CRC 2EC440AA
Accurately ripped (confidence 2) [37A3B2BE]
Copy OK
Track 3
Filename D:\Music\olaf_alien\Thirsty Moon - You'll Never Come Back (1973, Brain-Metronome - 2006, Malesh-Long Hair)\03 - Tune In.wav
Pre-gap length 0:00:02.00
Peak level 94.0 %
Extraction speed 6.8 X
Track quality 100.0 %
Test CRC C2CCBC49
Copy CRC C2CCBC49
Accurately ripped (confidence 2) [96E5C183]
Copy OK
Track 4
Filename D:\Music\olaf_alien\Thirsty Moon - You'll Never Come Back (1973, Brain-Metronome - 2006, Malesh-Long Hair)\04 - You'll Never Come Back.wav
Pre-gap length 0:00:02.00
Peak level 94.1 %
Extraction speed 7.5 X
Track quality 99.9 %
Test CRC 111A186A
Copy CRC 111A186A
Accurately ripped (confidence 2) [193F7071]
Copy OK
Track 5
Filename D:\Music\olaf_alien\Thirsty Moon - You'll Never Come Back (1973, Brain-Metronome - 2006, Malesh-Long Hair)\05 - Das Fest Der Völker.wav
Pre-gap length 0:00:01.71
Peak level 94.0 %
Extraction speed 8.0 X
Track quality 100.0 %
Test CRC 2172E310
Copy CRC 2172E310
Accurately ripped (confidence 2) [613780FD]
Copy OK
Track 6
Filename D:\Music\olaf_alien\Thirsty Moon - You'll Never Come Back (1973, Brain-Metronome - 2006, Malesh-Long Hair)\06 - Music (bonus).wav
Pre-gap length 0:00:02.34
Peak level 94.0 %
Extraction speed 8.4 X
Track quality 99.9 %
Test CRC BE5392DB
Copy CRC BE5392DB
Accurately ripped (confidence 2) [382E219B]
Copy OK
All tracks accurately ripped
No errors occurred
End of status report

Содержание индексной карты (.CUE):

REM GENRE "Progressive Rock"
REM DATE 1973
REM DISCID 440D4106
REM COMMENT "ExactAudioCopy v1.0b1"
PERFORMER "Thirsty Moon"
TITLE "You'll Never Come Back"
FILE "01 - I See You.wav" WAVE
TRACK 01 AUDIO
TITLE "I See You"
PERFORMER "Thirsty Moon"
INDEX 01 00:00:00
TRACK 02 AUDIO
TITLE "Trash Man"
PERFORMER "Thirsty Moon"
INDEX 00 07:17:09
FILE "02 - Trash Man.wav" WAVE
INDEX 01 00:00:00
TRACK 03 AUDIO
TITLE "Tune In"
PERFORMER "Thirsty Moon"
INDEX 00 14:26:31
FILE "03 - Tune In.wav" WAVE
INDEX 01 00:00:00
TRACK 04 AUDIO
TITLE "You'll Never Come Back"
PERFORMER "Thirsty Moon"
INDEX 00 04:59:45
FILE "04 - You'll Never Come Back.wav" WAVE
INDEX 01 00:00:00
TRACK 05 AUDIO
TITLE "Das Fest Der Völker"
PERFORMER "Thirsty Moon"
INDEX 00 12:32:60
FILE "05 - Das Fest Der Völker.wav" WAVE
INDEX 01 00:00:00
TRACK 06 AUDIO
TITLE "Music (bonus)"
PERFORMER "Thirsty Moon"
INDEX 00 05:05:58
FILE "06 - Music (bonus).wav" WAVE
INDEX 01 00:00:00

Лог проверки качества

-----------------------
DON'T MODIFY THIS FILE
-----------------------
PERFORMER: auCDtect Task Manager, ver. 1.5.1RC4 build 1.5.1.5
Copyright (c) 2008-2010 y-soft. All rights reserved
http://y-soft.org
ANALYZER: auCDtect: CD records authenticity detector, version 0.8.2
Copyright (c) 2004 Oleg Berngardt. All rights reserved.
Copyright (c) 2004 Alexander Djourik. All rights reserved.
FILE: 06 - Music (bonus).flac
Size: 85703393 Hash: D3F80A07129C330AA9F7462FD719396B Accuracy: -m0
Conclusion: CDDA 100%
Signature: AF6200488BEE8FB811414F05D05B9F9E7F17C6BD
FILE: 05 - Das Fest Der Völker.flac
Size: 30015948 Hash: 3C81A922A7D634D1C0E2C29514DD920B Accuracy: -m0
Conclusion: CDDA 99%
Signature: 128386AB1DEBAF70B3391F47BC141E82B7CA0DCF
FILE: 04 - You'll Never Come Back.flac
Size: 80759459 Hash: BF482C4E6A10986A8140F141410A20D3 Accuracy: -m0
Conclusion: CDDA 100%
Signature: 3BC19555971A88FE0E0CEB9BD3E5972A4DC1DF7F
FILE: 03 - Tune In.flac
Size: 37371336 Hash: BE6CE33F52C569BBA8476EB442E08F46 Accuracy: -m0
Conclusion: CDDA 100%
Signature: C9B3CA1BA5D5D3FDC12036D2CBE9B2D4949EAD2D
FILE: 02 - Trash Man.flac
Size: 105283258 Hash: FDD50344BBEC6CB2ABC65EADCF901990 Accuracy: -m0
Conclusion: CDDA 100%
Signature: 6D6A4AC170899010C31F4B9CEB645500FDEE8579
FILE: 01 - I See You.flac
Size: 53631472 Hash: 8E2FB1F93B9E9F76160F57640117392C Accuracy: -m0
Conclusion: CDDA 100%
Signature: 5B968F7FC6775F3B25CAA6C9E4EDA59A690E6240
-

Об альбоме (сборнике):

This is Thirsty Moons second album on famous German label Brain. Originally released in 1973. Despite the fact, that their first album is accepted as a classic one, many progressive Rock music lovers appreciate "You'll never come back" as the the band's best effort. On this album Thirsty Moon developed their unique sound. No other band has so completely captured the elusive phenomena inherent in acid-Rock and placed it so effectively in a Jazz-Rock format. Thirsty Moon's sound is a mirror ball of images surrounding the listener. This is one of the best albums of that time. Comes with one never released before bonus track and comprehensive booklet including liner notes by member Jьrgen Drogies. Digitally remastered from mastertape. You must have it.
[green-brain-krautrock.de]

Состав

- Norbert Drogies / drums, percussion
- Michael Kobs / electric piano
- Erwin Noack / congas, percussion
- Willi Pape / soprano/tenor saxophones, clarinet, flute, percussion
- Harald Konietzko / bass, 12-string guitar, percussion, vocals
- Jürgen Drogies / guitar, percussion
- Hans-Werner Ranwig / organ, percussion, vocals
-

Альбомы Thirsty Moon на РТО


If you like the topic, please click share to help develop our site.

To download the file disable ad blocking, and reload the page.

disable adblock How to disable ad blocking?

Download by magnet link 463 MB Download Torrent

Login using:

Similar topics



   
Current time is: 25-May 19:24 :: All times are UTC + 3