En Las Espesas Nieblas - De Memorias Y Destinos
Страна: Peru
Жанр: Doom Metal
Носитель: CD
Год издания: 2005
Производитель диска: A Sangre Fría Records/Gate Of Horror Productions [GOH/ASF 002]
Аудиокодек: FLAC (*.flac)
Тип рипа: image+.cue
Битрейт аудио: lossless
Продолжительность: 1:00:13
Источник: Original CD
Сканы: да
Треклист:
01. El Culto (Intro) / Fuerzas De La Naturaleza (16:51)
02. De Memorias Y Destinos (11:46)
03. Eco Infinito (9:38)
04. Ilusiones Terrenales (8:58)
05. La Agonia Del Ser (9:52)
06. La Noche De Los Tiempos (3:10)

Отчёт ЕАС

Exact Audio Copy V1.1 from 23. June 2015
EAC extraction logfile from 7. June 2017, 2:31
En Las Espesas Nieblas / De Memorias Y Destinos
Used drive : Optiarc DVD RW AD-7200S Adapter: 5 ID: 0
Read mode : Secure
Utilize accurate stream : Yes
Defeat audio cache : Yes
Make use of C2 pointers : No
Read offset correction : 48
Overread into Lead-In and Lead-Out : No
Fill up missing offset samples with silence : Yes
Delete leading and trailing silent blocks : No
Null samples used in CRC calculations : Yes
Used interface : Installed external ASPI interface
Used output format : User Defined Encoder
Selected bitrate : 128 kBit/s
Quality : High
Add ID3 tag : No
Command line compressor : C:\Program Files\EAC\Exact Audio Copy\Flac\flac.exe
Additional command line options : -V -8 -T "Date=%year%" -T "Genre=%genre%" %source%
TOC of the extracted CD
Track | Start | Length | Start sector | End sector
---------------------------------------------------------
1 | 0:00.00 | 16:50.39 | 0 | 75788
2 | 16:50.39 | 11:45.62 | 75789 | 128725
3 | 28:36.26 | 9:37.54 | 128726 | 172054
4 | 38:14.05 | 8:57.38 | 172055 | 212367
5 | 47:11.43 | 9:52.13 | 212368 | 256780
6 | 57:03.56 | 3:09.40 | 256781 | 270995
Range status and errors
Selected range
Filename C:\darkbrides\En Las Espesas Nieblas - De Memorias Y Destinos.wav
Peak level 99.7 %
Extraction speed 4.0 X
Range quality 100.0 %
Test CRC 60225E5B
Copy CRC 60225E5B
Copy OK
No errors occurred
AccurateRip summary
Track 1 not present in database
Track 2 not present in database
Track 3 not present in database
Track 4 not present in database
Track 5 not present in database
Track 6 not present in database
None of the tracks are present in the AccurateRip database
End of status report
---- CUETools DB Plugin V2.1.6
[CTDB TOCID: 4J9eH_xx_o285hKv_OcgRvDX2JY-] disk not present in database
Submit result: 4J9eH_xx_o285hKv_OcgRvDX2JY- has been uploaded
==== Log checksum 932F5C43C5353135B50DCAC3837EC792CA2F3CBF8FFEA85A1D7A6492D7E380B2 ====
-

If you like the topic, please click share to help develop our site.

To download the file disable ad blocking, and reload the page.

disable adblock How to disable ad blocking?

Download by magnet link 420 MB Download Torrent

Login using:

Similar topics



   
Current time is: 27-May 02:44 :: All times are UTC + 3