Abysmal Grief - Collection
Страна: Italy
Жанр: Gothic/Doom Metal
Аудиокодек: FLAC (*.flac)
Тип рипа: image+.cue
Битрейт аудио: lossless
Источник: Original CD's
Сканы: да
-

2000 - Exsequia Occulta (Single)

Треклист:
01. Exsequia Occulta (13:15)
02. Sepulchre Of Misfortune (7:20)
total time 0:20:35
Доп. информация:
Flowers of Grave Prod. [FOG 1301]

Info

Limited to 500 copies

Отчёт ЕАС

Exact Audio Copy V1.0 beta 3 from 29. August 2011
EAC extraction logfile from 7. July 2014, 4:01
Abysmal Grief / Exsequia Occulta
Used drive : ASUS DRW-1612BL Adapter: 2 ID: 0
Read mode : Secure
Utilize accurate stream : Yes
Defeat audio cache : Yes
Make use of C2 pointers : No
Read offset correction : 6
Overread into Lead-In and Lead-Out : No
Fill up missing offset samples with silence : Yes
Delete leading and trailing silent blocks : No
Null samples used in CRC calculations : Yes
Used interface : Installed external ASPI interface
Used output format : User Defined Encoder
Selected bitrate : 128 kBit/s
Quality : High
Add ID3 tag : No
Command line compressor : C:\Program Files\EAC\Exact Audio Copy\Flac\flac.exe
Additional command line options : -V -8 -T "Date=%year%" -T "Genre=%genre%" %source%
TOC of the extracted CD
Track | Start | Length | Start sector | End sector
---------------------------------------------------------
1 | 0:00.00 | 13:15.15 | 0 | 59639
2 | 13:15.15 | 7:19.60 | 59640 | 92624
Range status and errors
Selected range
Filename C:\darkbrides\Abysmal Grief - Exsequia Occulta.wav
Peak level 100.0 %
Extraction speed 6.8 X
Range quality 100.0 %
Test CRC 050D1EC3
Copy CRC 050D1EC3
Copy OK
No errors occurred
AccurateRip summary
Track 1 accurately ripped (confidence 2) [9C3DBC02] (AR v2)
Track 2 accurately ripped (confidence 2) [373C7C2B] (AR v2)
All tracks accurately ripped
End of status report
==== Log checksum 5EF30F6BD3E78C6B460DE8F6E91E354DB7A83AB43D5B33B42CF3AD8DBDDBF2C9 ====

2007 - Abysmal Grief

Треклист:
01. The Necromass: Always They Answer (11:40)
02. Dirges (1:38)
03. Cultus Lugubris (9:40)
04. Requies Aeterna (7:24)
05. Creatures From The Grave (5:50)
06. Divination (1:37)
07. When The Ceremony Ends (9:18)
08. Mors Eleison (7:27)
09. Occultism (5:40)*
10. The Shroud (5:50)
11. Mysterium Umbrarum (8:03)
total time 1:14:06
Доп. информация:
Black Widow Records [BWRCD 097-2]

Info

Tracks 8-11 are from EP "Mors Eleison"
*- Paul Chain cover

Отчёт ЕАС

Exact Audio Copy V1.0 beta 3 from 29. August 2011
EAC extraction logfile from 2. February 2015, 4:08
Abysmal Grief / Abysmal Grief
Used drive : ASUS DRW-1612BL Adapter: 0 ID: 0
Read mode : Secure
Utilize accurate stream : Yes
Defeat audio cache : Yes
Make use of C2 pointers : No
Read offset correction : 6
Overread into Lead-In and Lead-Out : No
Fill up missing offset samples with silence : Yes
Delete leading and trailing silent blocks : No
Null samples used in CRC calculations : Yes
Used interface : Installed external ASPI interface
Used output format : User Defined Encoder
Selected bitrate : 128 kBit/s
Quality : High
Add ID3 tag : No
Command line compressor : C:\Program Files\EAC\Exact Audio Copy\Flac\flac.exe
Additional command line options : -V -8 -T "Date=%year%" -T "Genre=%genre%" %source%
TOC of the extracted CD
Track | Start | Length | Start sector | End sector
---------------------------------------------------------
1 | 0:00.00 | 11:39.42 | 0 | 52466
2 | 11:39.42 | 1:38.07 | 52467 | 59823
3 | 13:17.49 | 9:39.45 | 59824 | 103293
4 | 22:57.19 | 7:24.04 | 103294 | 136597
5 | 30:21.23 | 5:50.36 | 136598 | 162883
6 | 36:11.59 | 1:36.39 | 162884 | 170122
7 | 37:48.23 | 9:18.00 | 170123 | 211972
8 | 47:06.23 | 7:26.51 | 211973 | 245473
9 | 54:32.74 | 5:40.13 | 245474 | 270986
10 | 60:13.12 | 5:50.26 | 270987 | 297262
11 | 66:03.38 | 8:02.55 | 297263 | 333467
Range status and errors
Selected range
Filename C:\darkbrides\Abysmal Grief - Abysmal Grief.wav
Peak level 99.9 %
Extraction speed 9.5 X
Range quality 100.0 %
Test CRC E54F6EDB
Copy CRC E54F6EDB
Copy OK
No errors occurred
AccurateRip summary
Track 1 accurately ripped (confidence 2) [BBD14906] (AR v2)
Track 2 accurately ripped (confidence 2) [1E287669] (AR v2)
Track 3 accurately ripped (confidence 2) [83100310] (AR v2)
Track 4 accurately ripped (confidence 2) [18CEA3DE] (AR v2)
Track 5 accurately ripped (confidence 2) [386B689B] (AR v2)
Track 6 accurately ripped (confidence 2) [2889C188] (AR v2)
Track 7 accurately ripped (confidence 2) [57C392E4] (AR v2)
Track 8 accurately ripped (confidence 2) [18EA5580] (AR v2)
Track 9 accurately ripped (confidence 2) [73C5A9F7] (AR v2)
Track 10 accurately ripped (confidence 2) [02A79FD2] (AR v2)
Track 11 accurately ripped (confidence 2) [57456265] (AR v2)
All tracks accurately ripped
End of status report
==== Log checksum E7DF51F8013794A229C2DF570AC6348CE85947C78C308DE46AEFBD8E0C0FB317 ====

2013 - Feretri

Треклист:
01. Lords Of The Funerals (9:36)
02. Hidden In The Graveyard (8:09)
03. Sinister Gleams (6:47)
04. Crepusculum (3:04)
05. The Gaze Of The Owl (6:54)
06. Her Scythe (11:13)
total time 0:45:43
Доп. информация:
Terror from Hell Records [FOAD 29]

Отчёт ЕАС

Exact Audio Copy V1.0 beta 3 from 29. August 2011
EAC extraction logfile from 8. September 2014, 2:19
Abysmal Grief / Feretri
Used drive : ASUS DRW-1612BL Adapter: 2 ID: 0
Read mode : Secure
Utilize accurate stream : Yes
Defeat audio cache : Yes
Make use of C2 pointers : No
Read offset correction : 6
Overread into Lead-In and Lead-Out : No
Fill up missing offset samples with silence : Yes
Delete leading and trailing silent blocks : No
Null samples used in CRC calculations : Yes
Used interface : Installed external ASPI interface
Used output format : User Defined Encoder
Selected bitrate : 128 kBit/s
Quality : High
Add ID3 tag : No
Command line compressor : C:\Program Files\EAC\Exact Audio Copy\Flac\flac.exe
Additional command line options : -V -8 -T "Date=%year%" -T "Genre=%genre%" %source%
TOC of the extracted CD
Track | Start | Length | Start sector | End sector
---------------------------------------------------------
1 | 0:00.00 | 9:35.58 | 0 | 43182
2 | 9:35.58 | 8:08.42 | 43183 | 79824
3 | 17:44.25 | 6:47.00 | 79825 | 110349
4 | 24:31.25 | 3:04.35 | 110350 | 124184
5 | 27:35.60 | 6:53.73 | 124185 | 155232
6 | 34:29.58 | 11:13.08 | 155233 | 205715
Range status and errors
Selected range
Filename C:\darkbrides\Abysmal Grief - Feretri.wav
Peak level 98.8 %
Extraction speed 8.5 X
Range quality 100.0 %
Test CRC 6F4859AB
Copy CRC 6F4859AB
Copy OK
No errors occurred
AccurateRip summary
Track 1 not present in database
Track 2 not present in database
Track 3 not present in database
Track 4 not present in database
Track 5 not present in database
Track 6 not present in database
None of the tracks are present in the AccurateRip database
End of status report
==== Log checksum 27AA977B8F616EB8925E96148E21C2C0B6F1618CA17F526038B877395F45710C ====

2014 - We Lead The Procession (Compilation)

Треклист:
01. Open Sepulchre (5:21)
02. Fear Of Profanation (6:05)
03. Raise The Dead (4:10)
04. Exsequia Occulta (9:09)
05. Procession (6:44)
06. Bara (5:35)
07. Profanation (4:45)
08. Mors Eleison (5:30)
total time 0:47:19
Доп. информация:
Terror from Hell Records [TFH 39]

Sinister Gleams - 2013 - Bonus Videoclip

Video: MPEG4 Video 1920x1080 25fps 1990kbps [Video]
Audio: AAC 44100Hz stereo 182kbps [Audio]

Screenlist

Info

Features tracks & track versions previously unreleased - recorded between 1998 and 2009
Limited to 500 copies

Отчёт ЕАС

Exact Audio Copy V1.0 beta 3 from 29. August 2011
EAC extraction logfile from 8. September 2014, 2:41
Abysmal Grief / We Lead the Procession
Used drive : ASUS DRW-1612BL Adapter: 2 ID: 0
Read mode : Secure
Utilize accurate stream : Yes
Defeat audio cache : Yes
Make use of C2 pointers : No
Read offset correction : 6
Overread into Lead-In and Lead-Out : No
Fill up missing offset samples with silence : Yes
Delete leading and trailing silent blocks : No
Null samples used in CRC calculations : Yes
Used interface : Installed external ASPI interface
Used output format : User Defined Encoder
Selected bitrate : 128 kBit/s
Quality : High
Add ID3 tag : No
Command line compressor : C:\Program Files\EAC\Exact Audio Copy\Flac\flac.exe
Additional command line options : -V -8 -T "Date=%year%" -T "Genre=%genre%" %source%
TOC of the extracted CD
Track | Start | Length | Start sector | End sector
---------------------------------------------------------
1 | 0:00.00 | 5:21.03 | 0 | 24077
2 | 5:21.03 | 6:05.05 | 24078 | 51457
3 | 11:26.08 | 4:09.60 | 51458 | 70192
4 | 15:35.68 | 9:09.08 | 70193 | 111375
5 | 24:45.01 | 6:43.63 | 111376 | 141663
6 | 31:28.64 | 5:35.26 | 141664 | 166814
7 | 37:04.15 | 4:44.61 | 166815 | 188175
8 | 41:49.01 | 5:29.42 | 188176 | 212892
9 | 49:50.43 | 12:40.36 | 224293 | 281328
Range status and errors
Selected range
Filename C:\darkbrides\Abysmal Grief - We Lead the Procession.wav
Peak level 100.0 %
Extraction speed 8.5 X
Range quality 99.9 %
Test CRC 610E5D85
Copy CRC 610E5D85
Copy OK
No errors occurred
AccurateRip summary
Track 1 not present in database
Track 2 not present in database
Track 3 not present in database
Track 4 not present in database
Track 5 not present in database
Track 6 not present in database
Track 7 not present in database
Track 8 not present in database
None of the tracks are present in the AccurateRip database
End of status report
==== Log checksum 402C158B945D73CD9C0993DFDFDCD3284C2E26C25DF847F0314FB47D791C4912 ====

2015 - Strange Rites Of Evil

Треклист:
01. Nomen Omen (10:13)
02. Strange Rites Of Evil (7:13)
03. Cemetery (5:13)
04. Child Of Darkness (5:13)
05. Radix Malorum (6:13)
06. Dressed In Black Cloaks (13:13)
total time 0:47:18
Доп. информация:
Terror from Hell Records [TFH 54]

Отчёт ЕАС

Exact Audio Copy V1.1 from 23. June 2015
EAC extraction logfile from 5. February 2016, 16:34
Abysmal Grief / Strange Rites of Evil
Used drive : ASUS DRW-1612BL Adapter: 2 ID: 0
Read mode : Secure
Utilize accurate stream : Yes
Defeat audio cache : Yes
Make use of C2 pointers : No
Read offset correction : 6
Overread into Lead-In and Lead-Out : No
Fill up missing offset samples with silence : Yes
Delete leading and trailing silent blocks : No
Null samples used in CRC calculations : Yes
Used interface : Installed external ASPI interface
Used output format : User Defined Encoder
Selected bitrate : 128 kBit/s
Quality : High
Add ID3 tag : No
Command line compressor : C:\Program Files\EAC\Exact Audio Copy\Flac\flac.exe
Additional command line options : -V -8 -T "Date=%year%" -T "Genre=%genre%" %source%
TOC of the extracted CD
Track | Start | Length | Start sector | End sector
---------------------------------------------------------
1 | 0:00.00 | 10:13.01 | 0 | 45975
2 | 10:13.01 | 7:13.01 | 45976 | 78451
3 | 17:26.02 | 5:13.01 | 78452 | 101927
4 | 22:39.03 | 5:13.08 | 101928 | 125410
5 | 27:52.11 | 6:13.01 | 125411 | 153386
6 | 34:05.12 | 13:13.08 | 153387 | 212869
Range status and errors
Selected range
Filename C:\darkbrides\Abysmal Grief - Strange Rites of Evil.wav
Peak level 100.0 %
Extraction speed 5.6 X
Range quality 99.9 %
Test CRC AA1DDA99
Copy CRC AA1DDA99
Copy OK
No errors occurred
AccurateRip summary
Track 1 not present in database
Track 2 not present in database
Track 3 not present in database
Track 4 not present in database
Track 5 not present in database
Track 6 not present in database
None of the tracks are present in the AccurateRip database
End of status report
---- CUETools DB Plugin V2.1.6
[CTDB TOCID: hYwWA8ggsGjFBG2oNTI5s2LCax0-] found
Submit result: hYwWA8ggsGjFBG2oNTI5s2LCax0- has been confirmed
Track | CTDB Status
1 | (2/2) Accurately ripped
2 | (2/2) Accurately ripped
3 | (2/2) Accurately ripped
4 | (2/2) Accurately ripped
5 | (2/2) Accurately ripped
6 | (2/2) Accurately ripped
==== Log checksum 415A9FDD9107B5F188406AEE6359BEB1807297F37C3B1DA9EFABAE4621EA0C87 ====

2016 - Reveal Nothing... (Compilation)

Треклист:
01. Cursed Be The Rite (8:05)
02. Exsequia Occulta (13:13)
03. Sepulchre Of Misfotune (6:51)
04. Hearse (5:56)
05. Borgo Pass (6:36)
06. Creatures From The Grave (5:39)
07. Brides Of The Goat (6:28)
08. The Samhain Feast (6:38)
09. Grimorium Verum (6:06)
10. Celebrate What They Fear (6:30)
11. Chains Of Death (6:09)
total time 1:18:12
Доп. информация:
Terror From Hell Records [TFH66]

Info

Track 1: previously unreleased.
Tracks 2-3 taken from the "Exsequia Occulta" single.
Tracks 4-5 taken from the "Hearse" single.
Track 6 taken from the "Creatures from the Grave / Le entità della salvazione" split.
Track 7 taken from the "Resurrection of the Damned / Brides of the Goat" split.
Tracks 8-9 taken from the "The Samhain Feast" EP.
Track 10-11 taken from the "Celebrate What They Fear" EP.

Отчёт ЕАС

Exact Audio Copy V1.1 from 23. June 2015
EAC extraction logfile from 7. June 2017, 3:04
Abysmal Grief / Reveal Nothing...
Used drive : ASUS DRW-1612BL Adapter: 2 ID: 0
Read mode : Secure
Utilize accurate stream : Yes
Defeat audio cache : Yes
Make use of C2 pointers : No
Read offset correction : 6
Overread into Lead-In and Lead-Out : No
Fill up missing offset samples with silence : Yes
Delete leading and trailing silent blocks : No
Null samples used in CRC calculations : Yes
Used interface : Installed external ASPI interface
Used output format : User Defined Encoder
Selected bitrate : 128 kBit/s
Quality : High
Add ID3 tag : No
Command line compressor : C:\Program Files\EAC\Exact Audio Copy\Flac\flac.exe
Additional command line options : -V -8 -T "Date=%year%" -T "Genre=%genre%" %source%
TOC of the extracted CD
Track | Start | Length | Start sector | End sector
---------------------------------------------------------
1 | 0:00.00 | 8:05.15 | 0 | 36389
2 | 8:05.15 | 13:13.20 | 36390 | 95884
3 | 21:18.35 | 6:50.72 | 95885 | 126706
4 | 28:09.32 | 5:56.14 | 126707 | 153420
5 | 34:05.46 | 6:35.50 | 153421 | 183095
6 | 40:41.21 | 5:39.15 | 183096 | 208535
7 | 46:20.36 | 6:27.68 | 208536 | 237628
8 | 52:48.29 | 6:38.03 | 237629 | 267481
9 | 59:26.32 | 6:06.37 | 267482 | 294968
10 | 65:32.69 | 6:30.00 | 294969 | 324218
11 | 72:02.69 | 6:09.22 | 324219 | 351915
Range status and errors
Selected range
Filename C:\darkbrides\Abysmal Grief - Reveal Nothing....wav
Peak level 100.0 %
Extraction speed 6.5 X
Range quality 100.0 %
Test CRC 5A7C1DAC
Copy CRC 5A7C1DAC
Copy OK
No errors occurred
AccurateRip summary
Track 1 not present in database
Track 2 not present in database
Track 3 not present in database
Track 4 not present in database
Track 5 not present in database
Track 6 not present in database
Track 7 not present in database
Track 8 not present in database
Track 9 not present in database
Track 10 not present in database
Track 11 not present in database
None of the tracks are present in the AccurateRip database
End of status report
---- CUETools DB Plugin V2.1.6
[CTDB TOCID: sQyEsqFq_ACXFpY4sJdUei0jWig-] disk not present in database
Submit result: sQyEsqFq_ACXFpY4sJdUei0jWig- has been uploaded
==== Log checksum 4528BB92008CEFF13EA4009302AA4F524C1C5378E9C19B47562DB35A84523827 ====
-

If you like the topic, please click share to help develop our site.

To download the file disable ad blocking, and reload the page.

disable adblock How to disable ad blocking?

Download by magnet link 2.26 GB Download Torrent

Login using:

Similar topics

(Gothic/Doom Metal) Te Devm - Te Devm (Demo) - 1999, MP3, 320 kbps
 58 MB   0 | 0   13-May-19 06:05   0
(Doom/Gothic Metal) Kemet - Pieces (EP) - 1998, MP3, 320 kbps
 68 MB   0 | 0   13-May-19 06:05   0
(Gothic/Doom Metal) Desiderium - Demo 1999 (Demo) - 1999, MP3, 320 kbps
 55 MB   0 | 0   13-May-19 06:05   0


   
Current time is: 25-May 19:27 :: All times are UTC + 3