Brutality - Screams of anguish (Bonus track) (Gold)
Жанр: Death Metal
Год выпуска диска: 2008
Производитель диска: Польша
Аудио кодек: APE
Тип рипа: image+.cue
Битрейт аудио: lossless
Продолжительность: 46:08
Трэклист:
1 These Walls Shall Be Your Grave (Brutality/Acres/Gat) 4:36
2 Ceremonial Unearthing (Brutality/Gates/Cok) 2:52
3 Sympathy [Instrumental] (Brutality/Ferdandez) 3:02
4 Septicemic Plague (Brutality/Acres/Gat) 3:46
5 Crushed (Brutality/Acres/Fer) 6:46
6 Spirit World [Instrumental] (Brutality/Gates) 3:16
7 Exposed to the Elements (Brutality/Gates/Cok) 4:46
8 Cries of the Forsaken (Brutality/Coker/Fer) 6:18
9 Cryptorium (Brutality/Acres/Gat) 3:59
10 Spawned Illusion (Brutality/Acres/Gat) 5:59
11 Sadistic (Brutality) 4:00
Доп. информация:
Recorded at Morrisound Studios Dec 1992
Produced by Jim Morris & BRUTALITY
Engineered and Mixed by Jim Morris
Remixed March 1993.
Also released on yellow vinyl. CD re-release by Metal Mind Prod.: Europe May
19, 2008; USA: July 8, 2008. Limited to 2000 24-bit remastered golden discs.Metal Mind Productions.
Бонус-трэк.
Золотой диск.
Ограниченное издание №0681.
Ремастированное издание.
Упаковка "DigiPack".

Отчёт ЕАС

Exact Audio Copy V0.99 prebeta 4 from 23. January 2008
Отчёт EAC об извлечении, выполненном 10. сентября 2009, 21:43
Brutality / Screams of Anguish
Дисковод: ASUS DRW-1814BL Adapter: 1 ID: 0
Режим чтения : Достоверность
Использование точного потока : Да
Отключение кэша аудио : Да
Использование указателей C2 : Нет
Коррекция смещения при чтении : 6
Способность читать области Lead-in и Lead-out : Нет
Заполнение пропущенных сэмплов тишиной : Да
Удаление блоков с тишиной в начале и конце : Нет
При вычислениях CRC использовались нулевые сэмплы : Да
Интерфейс : Встроенный Win32-интерфейс для Win NT/2000
Выходной формат : Внутренние WAV-операции
Формат сэмплов : 44.100 Гц; 16 бит; стерео
TOC извлечённого CD
Трек | Старт | Длительность | Начальный сектор | Конечный сектор
---------------------------------------------------------------------
1 | 0:00.00 | 4:36.12 | 0 | 20711
2 | 4:36.12 | 2:52.46 | 20712 | 33657
3 | 7:28.58 | 3:02.32 | 33658 | 47339
4 | 10:31.15 | 3:46.69 | 47340 | 64358
5 | 14:18.09 | 6:46.51 | 64359 | 94859
6 | 21:04.60 | 3:16.42 | 94860 | 109601
7 | 24:21.27 | 4:46.36 | 109602 | 131087
8 | 29:07.63 | 6:18.07 | 131088 | 159444
9 | 35:25.70 | 3:59.36 | 159445 | 177405
10 | 39:25.31 | 5:59.67 | 177406 | 204397
11 | 45:25.23 | 4:00.05 | 204398 | 222402
Характеристики диапазона извлечения и сообщения об ошибках
Выбранный диапазон
Имя файла E:\BRUTALITY - SCREAMS OF ANGUISH (BONUS TRACK) (GOLD) (LTD)\Brutality - Screams of Anguish.wav
Пиковый уровень 98.5 %
Качество диапазона 100.0 %
CRC копии 3929DCEA
Копирование... OK
Ошибок не произошло
AccurateRip: сводка
Трек 1 точное извлечение (доверие 1) [E2EAB534]
Трек 2 точное извлечение (доверие 1) [9CC9CD59]
Трек 3 точное извлечение (доверие 1) [4EB3DED5]
Трек 4 точное извлечение (доверие 1) [B586E381]
Трек 5 точное извлечение (доверие 1) [9D2948BF]
Трек 6 точное извлечение (доверие 1) [EAAA146F]
Трек 7 точное извлечение (доверие 1) [19B25C19]
Трек 8 точное извлечение (доверие 1) [2D804ACB]
Трек 9 точное извлечение (доверие 1) [4DB00A3F]
Трек 10 точное извлечение (доверие 1) [F4A4F8CD]
Трек 11 точное извлечение (доверие 1) [718E60B7]
Все треки извлечены точно
Конец отчёта

If you like the topic, please click share to help develop our site.

To download the file disable ad blocking, and reload the page.

disable adblock How to disable ad blocking?

Download by magnet link 341 MB Download Torrent

Login using:

Similar topics

(Death Metal) Deathswarm - Shadowlands of Darkness - 2019, MP3, 320 kbps
 97 MB   0 | 0   04-May-19 07:56   0


   
Current time is: 27-May 02:09 :: All times are UTC + 3