ENTOMBED "Left Hand Path"
Страна: Sweden
Жанр: Death`n Roll
Год выпуска: 1990
Формат: APE (image + .cue)
Битрейт аудио: lossless
Продолжительность: 47:16
Трэклист:
01.Left Hand Path 06:39
02.Drowned 04:02
03.Revel in Flesh 03:43
04.When Life Has Ceased 04:11
05.Supposed to Rot 02:04
06.But Life Goes On 03:00
07.Bitter Loss 04:22
08.Morbid Devourment 05:26
09.Abnormally Deceased 02:59
10.The Truth Beyond 03:25
11.Carnal Leftovers 02:57
12.Premature Autopsy 04:28

Отчет EAC

Exact Audio Copy V0.99 prebeta 4 from 23. January 2008
Отчёт EAC об извлечении, выполненном 9. июня 2008, 19:55
Entombed / Left Hand Path
Дисковод: Optiarc DVD RW AD-7170S Adapter: 0 ID: 1
Режим чтения : Достоверность
Использование точного потока : Да
Отключение кэша аудио : Да
Использование указателей C2 : Нет
Комбинированное смещение чтения/записи : 48
Способность читать области Lead-in и Lead-out : Нет
Заполнение пропущенных сэмплов тишиной : Да
Удаление блоков с тишиной в начале и конце : Нет
При вычислениях CRC использовались нулевые сэмплы : Да
Интерфейс : Установленный внешний ASPI-интерфейс
Выходной формат : Внутренние WAV-операции
Формат сэмплов : 44.100 Гц; 16 бит; стерео
TOC извлечённого CD
Трек | Старт | Длительность | Начальный сектор | Конечный сектор
---------------------------------------------------------------------
1 | 0:00.00 | 6:39.07 | 0 | 29931
2 | 6:39.07 | 3:59.70 | 29932 | 47926
3 | 10:39.02 | 3:42.28 | 47927 | 64604
4 | 14:21.30 | 4:11.07 | 64605 | 83436
5 | 18:32.37 | 2:03.50 | 83437 | 92711
6 | 20:36.12 | 2:59.63 | 92712 | 106199
7 | 23:36.00 | 4:22.57 | 106200 | 125906
8 | 27:58.57 | 5:25.28 | 125907 | 150309
9 | 33:24.10 | 2:58.72 | 150310 | 163731
10 | 36:23.07 | 3:25.53 | 163732 | 179159
11 | 39:48.60 | 2:57.42 | 179160 | 192476
12 | 42:46.27 | 4:28.15 | 192477 | 212591
Характеристики диапазона извлечения и сообщения об ошибках
Выбранный диапазон
Имя файла D:\проги\BitComet\Downloads\Новая папка\Entombed - Left Hand Path.wav
Пиковый уровень 99.6 %
Качество диапазона 99.9 %
CRC копии 28238E9C
Копирование... OK
Ошибок не произошло
Конец отчёта
Доп. информация: Легендарный "Left Hand Path" - один из лучших шедевров шведского дэта (и металла вообще). Очень низко настроенные гитары, техничные барабаны. Скорости от средних до высоких. Вокал - чисто дэтовый рык. Интересная лирика. Все записано с хорошим звуком. Незабываемая атмосфера альбома переносит слушателя в далекое начало 90-х.
Хоть альбом и старенький, сейчас он слушается очень хорошо и приятно, потому что это классика. Рекомендую истинным любителям дэта. Супер альбом супер группы!

If you like the topic, please click share to help develop our site.

To download the file disable ad blocking, and reload the page.

disable adblock How to disable ad blocking?

Download by magnet link 345 MB Download Torrent

Login using:

Similar topics

(Stoner/Doom Metal) Sleep - The Sciences - 2018, MP3, 320 kbps
 122 MB   0 | 0   24-Apr-18 20:30   57


   
Current time is: 25-May 19:30 :: All times are UTC + 3