The Crawling - Discography
Страна: United Kingdom
Жанр: Death/Doom Metal
Аудиокодек: FLAC (*.flac)
Тип рипа: image+.cue
Битрейт аудио: lossless
Источник: Original CD's
Сканы: да
-

2015 - Choking On Concrete (Single)

Треклист:
01. Choking On Concrete (5:03)
total time 0:05:03
Доп. информация:
GrindScene Records [GSR017]

Отчёт ЕАС

Exact Audio Copy V1.1 from 23. June 2015
EAC extraction logfile from 31. May 2017, 23:06
The Crawling / Choking On Concrete
Used drive : ASUS DRW-1612BL Adapter: 2 ID: 0
Read mode : Secure
Utilize accurate stream : Yes
Defeat audio cache : Yes
Make use of C2 pointers : No
Read offset correction : 6
Overread into Lead-In and Lead-Out : No
Fill up missing offset samples with silence : Yes
Delete leading and trailing silent blocks : No
Null samples used in CRC calculations : Yes
Used interface : Installed external ASPI interface
Used output format : User Defined Encoder
Selected bitrate : 128 kBit/s
Quality : High
Add ID3 tag : No
Command line compressor : C:\Program Files\EAC\Exact Audio Copy\Flac\flac.exe
Additional command line options : -V -8 -T "Date=%year%" -T "Genre=%genre%" %source%
TOC of the extracted CD
Track | Start | Length | Start sector | End sector
---------------------------------------------------------
1 | 0:00.00 | 5:02.46 | 0 | 22695
Range status and errors
Selected range
Filename C:\darkbrides\The Crawling - Choking On Concrete.wav
Peak level 96.7 %
Extraction speed 5.0 X
Range quality 100.0 %
Test CRC 0DE0D2F1
Copy CRC 0DE0D2F1
Copy OK
No errors occurred
AccurateRip summary
Track 1 cannot be verified as accurate (confidence 1) [30884A0E], AccurateRip returned [314C3B05] (AR v2)
No tracks could be verified as accurate
You may have a different pressing from the one(s) in the database
End of status report
---- CUETools DB Plugin V2.1.6
[CTDB TOCID: XeEuPVMmgXRJaWtxd8BP4.AanPU-] found
Submit result: XeEuPVMmgXRJaWtxd8BP4.AanPU- has been confirmed
Track | CTDB Status
1 | (1/2) Accurately ripped
==== Log checksum 38D919BF2743CDDC69249F79EDC71C24B7E07690F9B7D30BE46F0EB8F028DDBF ====

2015 - In Light Of Dark Days (EP)

Треклист:
01. The Right To Crawl (6:18)
02. End Of The Rope (4:35)
03. Catatonic (8:25)
total time 0:19:18
Доп. информация:
GrindScene Records [GSR019]

Отчёт ЕАС

Exact Audio Copy V1.1 from 23. June 2015
EAC extraction logfile from 31. May 2017, 23:15
The Crawling / In Light of Dark Days
Used drive : ASUS DRW-1612BL Adapter: 2 ID: 0
Read mode : Secure
Utilize accurate stream : Yes
Defeat audio cache : Yes
Make use of C2 pointers : No
Read offset correction : 6
Overread into Lead-In and Lead-Out : No
Fill up missing offset samples with silence : Yes
Delete leading and trailing silent blocks : No
Null samples used in CRC calculations : Yes
Used interface : Installed external ASPI interface
Used output format : User Defined Encoder
Selected bitrate : 128 kBit/s
Quality : High
Add ID3 tag : No
Command line compressor : C:\Program Files\EAC\Exact Audio Copy\Flac\flac.exe
Additional command line options : -V -8 -T "Date=%year%" -T "Genre=%genre%" %source%
TOC of the extracted CD
Track | Start | Length | Start sector | End sector
---------------------------------------------------------
1 | 0:00.00 | 6:18.06 | 0 | 28355
2 | 6:18.06 | 4:34.72 | 28356 | 48977
3 | 10:53.03 | 8:24.53 | 48978 | 86830
Range status and errors
Selected range
Filename C:\darkbrides\The Crawling - In Light of Dark Days.wav
Peak level 97.7 %
Extraction speed 6.4 X
Range quality 100.0 %
Test CRC 90CC27C1
Copy CRC 90CC27C1
Copy OK
No errors occurred
AccurateRip summary
Track 1 not present in database
Track 2 not present in database
Track 3 not present in database
None of the tracks are present in the AccurateRip database
End of status report
---- CUETools DB Plugin V2.1.6
[CTDB TOCID: yYZnoftFQrGF1xz_Q5lcywMItZ4-] disk not present in database
Submit result: yYZnoftFQrGF1xz_Q5lcywMItZ4- has been uploaded
==== Log checksum F0B41976277AA76CF3EF6FF7A3957E417F01AE16197811D44C3C26437858A608 ====

2017 - Anatomy Of Loss

Треклист:
01. An Immaculate Deception (6:01)
02. Poison Orange (7:33)
03. Acid On My Skin (5:14)
04. All Our Failings (4:30)
05. The Right To Crawl (6:19)
06. Violence Vanity & Neglect (7:12)
07. Catatonic (8:34)
total time 0:45:21
Доп. информация:
GrindScene Records [GSR 027]

Отчёт ЕАС

Exact Audio Copy V1.1 from 23. June 2015
EAC extraction logfile from 31. May 2017, 23:30
The Crawling / Anatomy Of Loss
Used drive : ASUS DRW-1612BL Adapter: 2 ID: 0
Read mode : Secure
Utilize accurate stream : Yes
Defeat audio cache : Yes
Make use of C2 pointers : No
Read offset correction : 6
Overread into Lead-In and Lead-Out : No
Fill up missing offset samples with silence : Yes
Delete leading and trailing silent blocks : No
Null samples used in CRC calculations : Yes
Used interface : Installed external ASPI interface
Used output format : User Defined Encoder
Selected bitrate : 128 kBit/s
Quality : High
Add ID3 tag : No
Command line compressor : C:\Program Files\EAC\Exact Audio Copy\Flac\flac.exe
Additional command line options : -V -8 -T "Date=%year%" -T "Genre=%genre%" %source%
TOC of the extracted CD
Track | Start | Length | Start sector | End sector
---------------------------------------------------------
1 | 0:00.00 | 6:01.06 | 0 | 27080
2 | 6:01.06 | 7:32.42 | 27081 | 61022
3 | 13:33.48 | 5:14.34 | 61023 | 84606
4 | 18:48.07 | 4:29.38 | 84607 | 104819
5 | 23:17.45 | 6:18.55 | 104820 | 133224
6 | 29:36.25 | 7:11.43 | 133225 | 165592
7 | 36:47.68 | 8:33.40 | 165593 | 204107
Range status and errors
Selected range
Filename C:\darkbrides\The Crawling - Anatomy Of Loss.wav
Peak level 99.0 %
Extraction speed 7.9 X
Range quality 99.9 %
Test CRC 49593B07
Copy CRC 49593B07
Copy OK
No errors occurred
AccurateRip summary
Track 1 not present in database
Track 2 not present in database
Track 3 not present in database
Track 4 not present in database
Track 5 not present in database
Track 6 not present in database
Track 7 not present in database
None of the tracks are present in the AccurateRip database
End of status report
---- CUETools DB Plugin V2.1.6
[CTDB TOCID: mwrxzwcYtGeKy2rK2XKuRWwBaCY-] disk not present in database
Submit result: mwrxzwcYtGeKy2rK2XKuRWwBaCY- has been uploaded
==== Log checksum ADA81CEBF8E81079172D671A7E174755DDB88CFC79696581BF2401E18CE36276 ====
-

If you like the topic, please click share to help develop our site.

To download the file disable ad blocking, and reload the page.

disable adblock How to disable ad blocking?

Download by magnet link 559 MB Download Torrent

Login using:

Similar topics



   
Current time is: 25-May 17:53 :: All times are UTC + 3