Diphtery - Survival Instinct
Страна: France
Жанр: Death Metal
Носитель: CD
Год издания: 1995
Производитель диска: Self-released [Réf 002]
Аудиокодек: FLAC (*.flac)
Тип рипа: image+.cue
Битрейт аудио: lossless
Продолжительность: 0:34:18
Источник: Original CD
Сканы: да
Треклист:
01. Shameful Deed (3:56)
02. No Future, No Hope (4:19)
03. Survival Instinct (5:06)
04. Tinkus (5:23)
05. By Way of Warning (6:42)
06. Sentiments De Haine (4:08)
07. W.P.Y.D. (4:43)

Отчёт ЕАС

Exact Audio Copy V1.1 from 23. June 2015
EAC extraction logfile from 1. January 2017, 20:15
Diphtery / Survival Instinct
Used drive : ASUS DRW-1612BL Adapter: 2 ID: 0
Read mode : Secure
Utilize accurate stream : Yes
Defeat audio cache : Yes
Make use of C2 pointers : No
Read offset correction : 6
Overread into Lead-In and Lead-Out : No
Fill up missing offset samples with silence : Yes
Delete leading and trailing silent blocks : No
Null samples used in CRC calculations : Yes
Used interface : Installed external ASPI interface
Used output format : User Defined Encoder
Selected bitrate : 128 kBit/s
Quality : High
Add ID3 tag : No
Command line compressor : C:\Program Files\EAC\Exact Audio Copy\Flac\flac.exe
Additional command line options : -V -8 -T "Date=%year%" -T "Genre=%genre%" %source%
TOC of the extracted CD
Track | Start | Length | Start sector | End sector
---------------------------------------------------------
1 | 0:00.30 | 3:56.03 | 30 | 17732
2 | 3:56.33 | 4:19.07 | 17733 | 37164
3 | 8:15.40 | 5:06.15 | 37165 | 60129
4 | 13:21.55 | 5:23.32 | 60130 | 84386
5 | 18:45.12 | 6:41.59 | 84387 | 114520
6 | 25:26.71 | 4:08.16 | 114521 | 133136
7 | 29:35.12 | 4:42.68 | 133137 | 154354
Range status and errors
Selected range
Filename C:\darkbrides\Diphtery - Survival Instinct.wav
Peak level 94.6 %
Extraction speed 7.0 X
Range quality 99.9 %
Test CRC 50F64766
Copy CRC 50F64766
Copy OK
No errors occurred
AccurateRip summary
Track 1 accurately ripped (confidence 1) [8E3B87D3] (AR v2)
Track 2 accurately ripped (confidence 1) [9B113F35] (AR v2)
Track 3 accurately ripped (confidence 1) [7BC81F9E] (AR v2)
Track 4 accurately ripped (confidence 1) [21551B08] (AR v2)
Track 5 accurately ripped (confidence 1) [32D0E082] (AR v2)
Track 6 accurately ripped (confidence 1) [09C99270] (AR v2)
Track 7 accurately ripped (confidence 1) [0012DAF7] (AR v2)
All tracks accurately ripped
End of status report
---- CUETools DB Plugin V2.1.6
[CTDB TOCID: BYhqFLBYD4FFxl6MkKom8_aGPrY-] disk not present in database
Submit result: BYhqFLBYD4FFxl6MkKom8_aGPrY- has been uploaded
==== Log checksum 8101F85FE27F148FFC71B48E65158BE9A41AED2C7A9AF18D43B9D21DF5367A89 ====
-

If you like the topic, please click share to help develop our site.

To download the file disable ad blocking, and reload the page.

disable adblock How to disable ad blocking?

Download by magnet link 275 MB Download Torrent

Login using:

Similar topics

(Death Metal) [CD] Hath - Of Rot And Ruin - 2019, FLAC (tracks), lossless
 414 MB   0 | 0   12-May-19 23:45   2
(Death Metal) [CD] Pestilence - Hadeon - 2018, FLAC (image+.cue), lossless
 345 MB   0 | 0   09-May-19 19:20   2


   
Current time is: 27-May 02:18 :: All times are UTC + 3