The Bloody Earth - Inevitable
Страна: Serbia
Жанр: Death/Doom Metal
Носитель: CD
Год издания: 2017
Производитель диска: Miner Recordings [MR 080]
Аудиокодек: FLAC (*.flac)
Тип рипа: image+.cue
Битрейт аудио: lossless
Продолжительность: 0:57:53
Источник: Original CD
Сканы: да
Треклист:
01. Thee, Who Wakes Me Unknown (10:45)
02. Promethean Punishment (9:33)
03. I Dwell Alone (9:59)
04. Thou Devour the Sea (9:34)
05. When Faith is Kneeling (9:06)
06. I Am Doom (8:58)

Отчёт ЕАС

Exact Audio Copy V1.1 from 23. June 2015
EAC extraction logfile from 28. May 2017, 18:32
The Bloody Earth / Inevitable
Used drive : Optiarc DVD RW AD-7200S Adapter: 5 ID: 0
Read mode : Secure
Utilize accurate stream : Yes
Defeat audio cache : Yes
Make use of C2 pointers : No
Read offset correction : 48
Overread into Lead-In and Lead-Out : No
Fill up missing offset samples with silence : Yes
Delete leading and trailing silent blocks : No
Null samples used in CRC calculations : Yes
Used interface : Installed external ASPI interface
Used output format : User Defined Encoder
Selected bitrate : 128 kBit/s
Quality : High
Add ID3 tag : No
Command line compressor : C:\Program Files\EAC\Exact Audio Copy\Flac\flac.exe
Additional command line options : -V -8 -T "Date=%year%" -T "Genre=%genre%" %source%
TOC of the extracted CD
Track | Start | Length | Start sector | End sector
---------------------------------------------------------
1 | 0:00.00 | 10:44.40 | 0 | 48339
2 | 10:44.40 | 9:32.59 | 48340 | 91298
3 | 20:17.24 | 9:58.49 | 91299 | 136197
4 | 30:15.73 | 9:33.42 | 136198 | 179214
5 | 39:49.40 | 9:06.03 | 179215 | 220167
6 | 48:55.43 | 8:57.64 | 220168 | 260506
Range status and errors
Selected range
Filename C:\darkbrides\The Bloody Earth - Inevitable.wav
Peak level 97.0 %
Extraction speed 3.6 X
Range quality 99.9 %
Test CRC B0A4CD7E
Copy CRC B0A4CD7E
Copy OK
No errors occurred
AccurateRip summary
Track 1 not present in database
Track 2 not present in database
Track 3 not present in database
Track 4 not present in database
Track 5 not present in database
Track 6 not present in database
None of the tracks are present in the AccurateRip database
End of status report
---- CUETools DB Plugin V2.1.6
[CTDB TOCID: S1nJtUCrtQ40WP6vPxdJ29Gh9eE-] found
Submit result: S1nJtUCrtQ40WP6vPxdJ29Gh9eE- has been uploaded
Track | CTDB Status
1 | (0/1) No match
2 | (0/1) No match
3 | (0/1) No match
4 | (0/1) No match
5 | (0/1) No match
6 | (0/1) No match
==== Log checksum 343D95354F0978E142E271886C99E52C4694257E7DA6F592A14C4C7D9365E965 ====
-

If you like the topic, please click share to help develop our site.

To download the file disable ad blocking, and reload the page.

disable adblock How to disable ad blocking?

Download by magnet link 414 MB Download Torrent

Login using:

Similar topics



   
Current time is: 25-May 18:55 :: All times are UTC + 3