Where Angels Fall - Redemption
Страна: Norway
Жанр: Gothic Metal
Носитель: CD
Год издания: 2014
Производитель диска: Self-released [WAF003CD]
Аудиокодек: FLAC (*.flac)
Тип рипа: image+.cue
Битрейт аудио: lossless
Продолжительность: 0:47:35
Источник: Original CD
Сканы: да
Треклист:
01. Beyond Repair (4:18)
02. We Are The Gods (4:42)
03. Mothmother (3:41)
04. Earth Visited (5:13)
05. Senseless (3:38)
06. Defeated (5:46)
07. Thinspiration (4:49)
08. Victim (5:54)
09. Words Unspoken (4:34)
10. Unbroken (4:59)

Отчёт ЕАС

Exact Audio Copy V1.1 from 23. June 2015
EAC extraction logfile from 6. June 2017, 23:37
Where Angels Fall / Redemption
Used drive : ASUS DRW-1612BL Adapter: 2 ID: 0
Read mode : Secure
Utilize accurate stream : Yes
Defeat audio cache : Yes
Make use of C2 pointers : No
Read offset correction : 6
Overread into Lead-In and Lead-Out : No
Fill up missing offset samples with silence : Yes
Delete leading and trailing silent blocks : No
Null samples used in CRC calculations : Yes
Used interface : Installed external ASPI interface
Used output format : User Defined Encoder
Selected bitrate : 128 kBit/s
Quality : High
Add ID3 tag : No
Command line compressor : C:\Program Files\EAC\Exact Audio Copy\Flac\flac.exe
Additional command line options : -V -8 -T "Date=%year%" -T "Genre=%genre%" %source%
TOC of the extracted CD
Track | Start | Length | Start sector | End sector
---------------------------------------------------------
1 | 0:00.00 | 4:18.31 | 0 | 19380
2 | 4:18.31 | 4:42.10 | 19381 | 40540
3 | 9:00.41 | 3:40.69 | 40541 | 57109
4 | 12:41.35 | 5:13.14 | 57110 | 80598
5 | 17:54.49 | 3:37.69 | 80599 | 96942
6 | 21:32.43 | 5:46.03 | 96943 | 122895
7 | 27:18.46 | 4:48.72 | 122896 | 144567
8 | 32:07.43 | 5:53.49 | 144568 | 171091
9 | 38:01.17 | 4:34.04 | 171092 | 191645
10 | 42:35.21 | 4:59.23 | 191646 | 214093
Range status and errors
Selected range
Filename C:\darkbrides\Where Angels Fall - Redemption.wav
Peak level 94.4 %
Extraction speed 5.7 X
Range quality 99.9 %
Test CRC B93E0C91
Copy CRC B93E0C91
Copy OK
No errors occurred
AccurateRip summary
Track 1 accurately ripped (confidence 1) [5C82157F] (AR v2)
Track 2 accurately ripped (confidence 1) [749478C9] (AR v2)
Track 3 accurately ripped (confidence 1) [E3493AF9] (AR v2)
Track 4 accurately ripped (confidence 1) [EF2EF51C] (AR v2)
Track 5 accurately ripped (confidence 1) [53C10D17] (AR v2)
Track 6 accurately ripped (confidence 1) [0E8D1CBA] (AR v2)
Track 7 accurately ripped (confidence 1) [6E3A9476] (AR v2)
Track 8 accurately ripped (confidence 1) [27DBA242] (AR v2)
Track 9 accurately ripped (confidence 1) [667B57EE] (AR v2)
Track 10 accurately ripped (confidence 1) [24B47458] (AR v2)
All tracks accurately ripped
End of status report
---- CUETools DB Plugin V2.1.6
[CTDB TOCID: HfemA5cepyaey2aOAttk5NDrh_M-] found
Submit result: HfemA5cepyaey2aOAttk5NDrh_M- has been confirmed
Track | CTDB Status
1 | (1/1) Accurately ripped
2 | (1/1) Accurately ripped
3 | (1/1) Accurately ripped
4 | (1/1) Accurately ripped
5 | (1/1) Accurately ripped
6 | (1/1) Accurately ripped
7 | (1/1) Accurately ripped
8 | (1/1) Accurately ripped
9 | (1/1) Accurately ripped
10 | (1/1) Accurately ripped
==== Log checksum 0649F4C0517471B20A81CF8855B92BA7B87D78A1766645A7214B717B1B9D3AFD ====
-

If you like the topic, please click share to help develop our site.

To download the file disable ad blocking, and reload the page.

disable adblock How to disable ad blocking?

Download by magnet link 406 MB Download Torrent

Login using:

Similar topics



   
Current time is: 21-Jul 15:39 :: All times are UTC + 3