Theatre Of Tragedy - Aégis
Страна: Norway
Жанр: Gothic Metal
Носитель: CD
Год издания: 1998
Производитель диска: Swanlake Records [MAS DP0159]
Аудиокодек: FLAC (*.flac)
Тип рипа: image+.cue
Битрейт аудио: lossless
Продолжительность: 0:54:09
Источник: Original CD
Сканы: да
Треклист:
01. Cassandra (6:49)
02. Lorelei (5:38)
03. Angélique (5:46)
04. Aœde (6:11)
05. Siren (7:30)
06. Samantha (Bonus Track) (4:12)
07. Venus (5:33)
08. Poppæa (5:47)
09. Bacchante (6:43)

Отчёт ЕАС

Exact Audio Copy V1.1 from 23. June 2015
EAC extraction logfile from 2. June 2017, 19:51
Theatre Of Tragedy / Aegis
Used drive : ASUS DRW-1612BL Adapter: 2 ID: 0
Read mode : Secure
Utilize accurate stream : Yes
Defeat audio cache : Yes
Make use of C2 pointers : No
Read offset correction : 6
Overread into Lead-In and Lead-Out : No
Fill up missing offset samples with silence : Yes
Delete leading and trailing silent blocks : No
Null samples used in CRC calculations : Yes
Used interface : Installed external ASPI interface
Used output format : User Defined Encoder
Selected bitrate : 128 kBit/s
Quality : High
Add ID3 tag : No
Command line compressor : C:\Program Files\EAC\Exact Audio Copy\Flac\flac.exe
Additional command line options : -V -8 -T "Date=%year%" -T "Genre=%genre%" %source%
TOC of the extracted CD
Track | Start | Length | Start sector | End sector
---------------------------------------------------------
1 | 0:00.00 | 6:48.57 | 0 | 30656
2 | 6:48.57 | 5:37.48 | 30657 | 55979
3 | 12:26.30 | 5:45.72 | 55980 | 81926
4 | 18:12.27 | 6:10.60 | 81927 | 109736
5 | 24:23.12 | 7:29.70 | 109737 | 143481
6 | 31:53.07 | 4:12.05 | 143482 | 162386
7 | 36:05.12 | 5:33.00 | 162387 | 187361
8 | 41:38.12 | 5:47.23 | 187362 | 213409
9 | 47:25.35 | 6:43.05 | 213410 | 243639
Range status and errors
Selected range
Filename C:\darkbrides\Theatre Of Tragedy - Aegis.wav
Peak level 99.3 %
Extraction speed 4.2 X
Range quality 100.0 %
Test CRC 3E504E2F
Copy CRC 3E504E2F
Copy OK
No errors occurred
AccurateRip summary
Track 1 accurately ripped (confidence 42) [4F43E6C1] (AR v2)
Track 2 accurately ripped (confidence 42) [E4A8FEA6] (AR v2)
Track 3 accurately ripped (confidence 42) [9944ECF8] (AR v2)
Track 4 accurately ripped (confidence 42) [17578E8A] (AR v2)
Track 5 accurately ripped (confidence 43) [E7E7F7E8] (AR v2)
Track 6 accurately ripped (confidence 42) [597DEEC9] (AR v2)
Track 7 accurately ripped (confidence 42) [4BBF9208] (AR v2)
Track 8 accurately ripped (confidence 42) [2E41EC38] (AR v2)
Track 9 accurately ripped (confidence 42) [E0CA1206] (AR v2)
All tracks accurately ripped
End of status report
---- CUETools DB Plugin V2.1.6
[CTDB TOCID: 5Qi.WJ6Ji4vS3sLyeiibfNzzhD8-] found
Submit result: 5Qi.WJ6Ji4vS3sLyeiibfNzzhD8- has been confirmed
Track | CTDB Status
1 | (75/76) Accurately ripped
2 | (75/76) Accurately ripped
3 | (75/76) Accurately ripped
4 | (75/76) Accurately ripped
5 | (75/76) Accurately ripped
6 | (75/76) Accurately ripped
7 | (74/76) Accurately ripped
8 | (73/76) Accurately ripped
9 | (74/76) Accurately ripped
==== Log checksum 68162046D549B2374C8FAEA2E416EE87DB394091E5DB538019505DA63A2BBC40 ====
-

If you like the topic, please click share to help develop our site.

To download the file disable ad blocking, and reload the page.

disable adblock How to disable ad blocking?

Download by magnet link 462 MB Download Torrent

Login using:

Similar topics



   
Current time is: 25-May 18:58 :: All times are UTC + 3