Atlantic Starr - Ultimate Collection
Жанр: Funk, Soul, Disco
Носитель: CD
Страна-производитель диска (релиза): США
Год издания: 2000
Издатель (лейбл): Hip-O Records
Номер по каталогу: 069 490 655-2
Аудиокодек: FLAC (*.flac)
Тип рипа: tracks+.cue
Битрейт аудио: lossless
Продолжительность: 78:11
Источник (релизер): What.CD
Наличие сканов в содержимом раздачи: нет
Треклист:
01. Always (4:48)
02. When Love Calls (3:57)
03. Secret Lovers (4:24)
04. Touch a Four Leaf Clover (4:02)
05. Silver Shadow (Specially Remixed Version) (6:57)
06. Love Crazy (4:47)
07. One Lover at a Time (4:02)
08. Cool, Calm, Collected (4:04)
09. Circles (4:05)
10. Love Me Down (4:03)
11. Send for Me (3:48)
12. More, More, More (4:36)
13. If Your Heart Isn't in It (3:55)
14. Stand Up (3:33)
15. (Let's) Rock 'n' Roll (3:38)
16. Freak-A-Ristic (4:04)
17. Masterpiece (4:20)
18. My First Love (5:08)

Лог создания рипа

Exact Audio Copy V0.99 prebeta 5 from 4. May 2009
EAC extraction logfile from 3. November 2009, 9:01
Atlantic Starr / Ultimate Collection
Used drive : TSSTcorpCDDVDW SH-S223F Adapter: 0 ID: 0
Read mode : Secure
Utilize accurate stream : Yes
Defeat audio cache : Yes
Make use of C2 pointers : No
Read offset correction : 6
Overread into Lead-In and Lead-Out : No
Fill up missing offset samples with silence : Yes
Delete leading and trailing silent blocks : No
Null samples used in CRC calculations : Yes
Used interface : Native Win32 interface for Win NT & 2000
Gap handling : Appended to previous track
Used output format : User Defined Encoder
Selected bitrate : 768 kBit/s
Quality : High
Add ID3 tag : No
Command line compressor : C:\Program Files\Exact Audio Copy\FLAC\FLAC.EXE
Additional command line options : -8 -V --seekpoint=5s --no-padding -T "ARTIST=%a" -T "TITLE=%t" -T "ALBUM=%g" -T "DATE=%y" -T "TRACKNUMBER=%n" -T "GENRE=%m" %s -o %d
TOC of the extracted CD
Track | Start | Length | Start sector | End sector
---------------------------------------------------------
1 | 0:00.00 | 4:47.47 | 0 | 21571
2 | 4:47.47 | 3:57.23 | 21572 | 39369
3 | 8:44.70 | 4:24.25 | 39370 | 59194
4 | 13:09.20 | 4:01.50 | 59195 | 77319
5 | 17:10.70 | 6:56.55 | 77320 | 108574
6 | 24:07.50 | 4:46.40 | 108575 | 130064
7 | 28:54.15 | 4:02.10 | 130065 | 148224
8 | 32:56.25 | 4:04.17 | 148225 | 166541
9 | 37:00.42 | 4:05.13 | 166542 | 184929
10 | 41:05.55 | 4:03.07 | 184930 | 203161
11 | 45:08.62 | 3:48.05 | 203162 | 220266
12 | 48:56.67 | 4:35.43 | 220267 | 240934
13 | 53:32.35 | 3:55.00 | 240935 | 258559
14 | 57:27.35 | 3:32.60 | 258560 | 274519
15 | 61:00.20 | 3:37.40 | 274520 | 290834
16 | 64:37.60 | 4:03.70 | 290835 | 309129
17 | 68:41.55 | 4:20.05 | 309130 | 328634
18 | 73:01.60 | 5:08.02 | 328635 | 351736
Track 1
Filename e:\music\pending\Atlantic Starr\2000 - Ultimate Collection\01 - Always.wav
Pre-gap length 0:00:02.00
Peak level 93.3 %
Track quality 100.0 %
Test CRC 4E838491
Copy CRC 4E838491
Accurately ripped (confidence 4) [A15C805E]
Copy OK
Track 2
Filename e:\music\pending\Atlantic Starr\2000 - Ultimate Collection\02 - When Love Calls.wav
Pre-gap length 0:00:01.05
Peak level 98.8 %
Track quality 100.0 %
Test CRC 50D0DBA0
Copy CRC 50D0DBA0
Accurately ripped (confidence 4) [7B69FCB7]
Copy OK
Track 3
Filename e:\music\pending\Atlantic Starr\2000 - Ultimate Collection\03 - Secret Lovers.wav
Pre-gap length 0:00:01.05
Peak level 98.9 %
Track quality 99.9 %
Test CRC 21E69AC6
Copy CRC 21E69AC6
Accurately ripped (confidence 4) [5F11AD1B]
Copy OK
Track 4
Filename e:\music\pending\Atlantic Starr\2000 - Ultimate Collection\04 - Touch A Four Leaf Clover.wav
Pre-gap length 0:00:01.05
Peak level 98.8 %
Track quality 100.0 %
Test CRC 945F91D9
Copy CRC 945F91D9
Accurately ripped (confidence 4) [3160B0B4]
Copy OK
Track 5
Filename e:\music\pending\Atlantic Starr\2000 - Ultimate Collection\05 - Silver Shadow (Specially Remixed Version).wav
Pre-gap length 0:00:01.05
Peak level 98.9 %
Track quality 99.9 %
Test CRC 1C50AAFE
Copy CRC 1C50AAFE
Accurately ripped (confidence 4) [22B88BA6]
Copy OK
Track 6
Filename e:\music\pending\Atlantic Starr\2000 - Ultimate Collection\06 - Love Crazy.wav
Pre-gap length 0:00:01.05
Peak level 98.8 %
Track quality 99.9 %
Test CRC FA002479
Copy CRC FA002479
Accurately ripped (confidence 4) [EA4E23D2]
Copy OK
Track 7
Filename e:\music\pending\Atlantic Starr\2000 - Ultimate Collection\07 - One Lover At A Time.wav
Pre-gap length 0:00:01.05
Peak level 98.8 %
Track quality 100.0 %
Test CRC 0F12A8AC
Copy CRC 0F12A8AC
Accurately ripped (confidence 4) [64972FC8]
Copy OK
Track 8
Filename e:\music\pending\Atlantic Starr\2000 - Ultimate Collection\08 - Cool, Calm, Collected.wav
Pre-gap length 0:00:01.10
Peak level 98.9 %
Track quality 100.0 %
Test CRC 20735F5D
Copy CRC 20735F5D
Accurately ripped (confidence 4) [41B450E1]
Copy OK
Track 9
Filename e:\music\pending\Atlantic Starr\2000 - Ultimate Collection\09 - Circles.wav
Pre-gap length 0:00:01.05
Peak level 98.8 %
Track quality 100.0 %
Test CRC 08BC2541
Copy CRC 08BC2541
Accurately ripped (confidence 4) [1E653C98]
Copy OK
Track 10
Filename e:\music\pending\Atlantic Starr\2000 - Ultimate Collection\10 - Love Me Down.wav
Pre-gap length 0:00:01.05
Peak level 98.8 %
Track quality 99.9 %
Test CRC 2B694DC1
Copy CRC 2B694DC1
Accurately ripped (confidence 4) [D3884CFA]
Copy OK
Track 11
Filename e:\music\pending\Atlantic Starr\2000 - Ultimate Collection\11 - Send For Me.wav
Pre-gap length 0:00:01.05
Peak level 98.8 %
Track quality 100.0 %
Test CRC 0E375034
Copy CRC 0E375034
Accurately ripped (confidence 4) [CA6C5E1E]
Copy OK
Track 12
Filename e:\music\pending\Atlantic Starr\2000 - Ultimate Collection\12 - More, More, More.wav
Pre-gap length 0:00:01.05
Peak level 98.8 %
Track quality 100.0 %
Test CRC BBED9EDB
Copy CRC BBED9EDB
Accurately ripped (confidence 4) [7B221C2A]
Copy OK
Track 13
Filename e:\music\pending\Atlantic Starr\2000 - Ultimate Collection\13 - If Your Heart Isn't In It.wav
Pre-gap length 0:00:01.18
Peak level 93.1 %
Track quality 100.0 %
Test CRC D53C7F75
Copy CRC D53C7F75
Accurately ripped (confidence 4) [194125D7]
Copy OK
Track 14
Filename e:\music\pending\Atlantic Starr\2000 - Ultimate Collection\14 - Stand Up.wav
Pre-gap length 0:00:01.18
Peak level 98.9 %
Track quality 100.0 %
Test CRC CC277482
Copy CRC CC277482
Accurately ripped (confidence 4) [2002F09F]
Copy OK
Track 15
Filename e:\music\pending\Atlantic Starr\2000 - Ultimate Collection\15 - (Let's) Rock And Roll.wav
Pre-gap length 0:00:01.05
Peak level 98.9 %
Track quality 100.0 %
Test CRC 3632FC32
Copy CRC 3632FC32
Accurately ripped (confidence 4) [F270AB59]
Copy OK
Track 16
Filename e:\music\pending\Atlantic Starr\2000 - Ultimate Collection\16 - Freak-A-Ristic.wav
Pre-gap length 0:00:01.05
Peak level 98.0 %
Track quality 100.0 %
Test CRC 50D31521
Copy CRC 50D31521
Accurately ripped (confidence 3) [3FE87A81]
Copy OK
Track 17
Filename e:\music\pending\Atlantic Starr\2000 - Ultimate Collection\17 - Masterpiece.wav
Pre-gap length 0:00:01.08
Peak level 98.8 %
Track quality 100.0 %
Test CRC AAA834E9
Copy CRC AAA834E9
Accurately ripped (confidence 4) [90EECE6D]
Copy OK
Track 18
Filename e:\music\pending\Atlantic Starr\2000 - Ultimate Collection\18 - My First Love.wav
Pre-gap length 0:00:01.05
Peak level 98.8 %
Track quality 100.0 %
Test CRC A8C2E788
Copy CRC A8C2E788
Accurately ripped (confidence 2) [9420B0F6]
Copy OK
All tracks accurately ripped
No errors occurred
End of status report

Содержание индексной карты (.CUE)

REM GENRE R&B
REM DATE 2000
REM DISCID 17125112
REM COMMENT "ExactAudioCopy v0.99pb5"
PERFORMER "Atlantic Starr"
TITLE "Ultimate Collection"
FILE "01 - Always.wav" WAVE
TRACK 01 AUDIO
TITLE "Always"
PERFORMER "Atlantic Starr"
INDEX 01 00:00:00
TRACK 02 AUDIO
TITLE "When Love Calls"
PERFORMER "Atlantic Starr"
INDEX 00 04:46:42
FILE "02 - When Love Calls.wav" WAVE
INDEX 01 00:00:00
TRACK 03 AUDIO
TITLE "Secret Lovers"
PERFORMER "Atlantic Starr"
INDEX 00 03:56:18
FILE "03 - Secret Lovers.wav" WAVE
INDEX 01 00:00:00
TRACK 04 AUDIO
TITLE "Touch a Four Leaf Clover"
PERFORMER "Atlantic Starr"
INDEX 00 04:23:20
FILE "04 - Touch a Four Leaf Clover.wav" WAVE
INDEX 01 00:00:00
TRACK 05 AUDIO
TITLE "Silver Shadow (Specially Remixed Version)"
PERFORMER "Atlantic Starr"
INDEX 00 04:00:45
FILE "05 - Silver Shadow (Specially Remixed Version).wav" WAVE
INDEX 01 00:00:00
TRACK 06 AUDIO
TITLE "Love Crazy"
PERFORMER "Atlantic Starr"
INDEX 00 06:55:50
FILE "06 - Love Crazy.wav" WAVE
INDEX 01 00:00:00
TRACK 07 AUDIO
TITLE "One Lover at a Time"
PERFORMER "Atlantic Starr"
INDEX 00 04:45:35
FILE "07 - One Lover at a Time.wav" WAVE
INDEX 01 00:00:00
TRACK 08 AUDIO
TITLE "Cool, Calm, Collected"
PERFORMER "Atlantic Starr"
INDEX 00 04:01:00
FILE "08 - Cool, Calm, Collected.wav" WAVE
INDEX 01 00:00:00
TRACK 09 AUDIO
TITLE "Circles"
PERFORMER "Atlantic Starr"
INDEX 00 04:03:12
FILE "09 - Circles.wav" WAVE
INDEX 01 00:00:00
TRACK 10 AUDIO
TITLE "Love Me Down"
PERFORMER "Atlantic Starr"
INDEX 00 04:04:08
FILE "10 - Love Me Down.wav" WAVE
INDEX 01 00:00:00
TRACK 11 AUDIO
TITLE "Send for Me"
PERFORMER "Atlantic Starr"
INDEX 00 04:02:02
FILE "11 - Send for Me.wav" WAVE
INDEX 01 00:00:00
TRACK 12 AUDIO
TITLE "More, More, More"
PERFORMER "Atlantic Starr"
INDEX 00 03:47:00
FILE "12 - More, More, More.wav" WAVE
INDEX 01 00:00:00
TRACK 13 AUDIO
TITLE "If Your Heart Isn't in It"
PERFORMER "Atlantic Starr"
INDEX 00 04:34:25
FILE "13 - If Your Heart Isn't in It.wav" WAVE
INDEX 01 00:00:00
TRACK 14 AUDIO
TITLE "Stand Up"
PERFORMER "Atlantic Starr"
INDEX 00 03:53:57
FILE "14 - Stand Up.wav" WAVE
INDEX 01 00:00:00
TRACK 15 AUDIO
TITLE "(Let's) Rock 'n' Roll"
PERFORMER "Atlantic Starr"
INDEX 00 03:31:55
FILE "15 - (Let's) Rock 'n' Roll.wav" WAVE
INDEX 01 00:00:00
TRACK 16 AUDIO
TITLE "Freak-A-Ristic"
PERFORMER "Atlantic Starr"
INDEX 00 03:36:35
FILE "16 - Freak-A-Ristic.wav" WAVE
INDEX 01 00:00:00
TRACK 17 AUDIO
TITLE "Masterpiece"
PERFORMER "Atlantic Starr"
INDEX 00 04:02:62
FILE "17 - Masterpiece.wav" WAVE
INDEX 01 00:00:00
TRACK 18 AUDIO
TITLE "My First Love"
PERFORMER "Atlantic Starr"
INDEX 00 04:19:00
FILE "18 - My First Love.wav" WAVE
INDEX 01 00:00:00

Отчет CUETools

[CUETools log; Date: 06.06.2017 18:11:02; Version: 2.1.5]
[CTDB TOCID: z5xb5WadIgxSWUS4uQr5RSpK7qY-] found.
Track | CTDB Status
1 | (15/15) Accurately ripped
2 | (15/15) Accurately ripped
3 | (15/15) Accurately ripped
4 | (15/15) Accurately ripped
5 | (15/15) Accurately ripped
6 | (15/15) Accurately ripped
7 | (15/15) Accurately ripped
8 | (15/15) Accurately ripped
9 | (15/15) Accurately ripped
10 | (15/15) Accurately ripped
11 | (15/15) Accurately ripped
12 | (15/15) Accurately ripped
13 | (15/15) Accurately ripped
14 | (15/15) Accurately ripped
15 | (15/15) Accurately ripped
16 | (15/15) Accurately ripped
17 | (15/15) Accurately ripped
18 | (15/15) Accurately ripped
[AccurateRip ID: 00341647-02b0b5c6-17125112] found.
Track [ CRC | V2 ] Status
01 [a15c805e|63a1b9a1] (07+14/30) Accurately ripped
02 [7b69fcb7|e3ed02e1] (07+13/28) Accurately ripped
03 [5f11ad1b|e45df684] (07+14/29) Accurately ripped
04 [3160b0b4|1222552c] (06+14/28) Accurately ripped
05 [22b88ba6|18c685a4] (07+13/28) Accurately ripped
06 [ea4e23d2|1a0e5705] (07+13/28) Accurately ripped
07 [64972fc8|959ad634] (07+13/28) Accurately ripped
08 [41b450e1|6309e59e] (07+13/28) Accurately ripped
09 [1e653c98|c3c91f06] (07+14/29) Accurately ripped
10 [d3884cfa|e68e25d8] (07+13/28) Accurately ripped
11 [ca6c5e1e|4de00b0c] (07+13/28) Accurately ripped
12 [7b221c2a|fde73a85] (07+13/27) Accurately ripped
13 [194125d7|cc7017ce] (07+13/28) Accurately ripped
14 [2002f09f|7083e5f8] (07+13/28) Accurately ripped
15 [f270ab59|c4cc2d87] (07+13/28) Accurately ripped
16 [3fe87a81|887cc44e] (06+13/27) Accurately ripped
17 [90eece6d|1b88be5b] (07+13/29) Accurately ripped
18 [9420b0f6|3b0b2845] (05+13/25) Accurately ripped
Offsetted by 10:
01 [fb3b940c] (06/30) Accurately ripped
02 [d482fca9] (05/28) Accurately ripped
03 [39e4b96e] (05/29) Accurately ripped
04 [9a17dc64] (05/28) Accurately ripped
05 [48985adb] (05/28) Accurately ripped
06 [6bf20f7e] (05/28) Accurately ripped
07 [c879989c] (05/28) Accurately ripped
08 [6a5b0f55] (05/28) Accurately ripped
09 [daa9a713] (05/29) Accurately ripped
10 [15815d89] (05/28) Accurately ripped
11 [dfaac0ef] (05/28) Accurately ripped
12 [3ec0e001] (05/27) Accurately ripped
13 [be6fb1be] (05/28) Accurately ripped
14 [f31ad5d5] (05/28) Accurately ripped
15 [be20efe3] (05/28) Accurately ripped
16 [ad38156d] (05/27) Accurately ripped
17 [5100032a] (06/29) Accurately ripped
18 [a06bdfab] (04/25) Accurately ripped
Track Peak [ CRC32 ] [W/O NULL] [ LOG ]
-- 98,9 [F87F0D5C] [B365361A]
01 93,3 [4E838491] [02D38470] CRC32
02 98,8 [50D0DBA0] [87926EBD] CRC32
03 98,9 [21E69AC6] [392662D8] CRC32
04 98,8 [945F91D9] [5ACFF290] CRC32
05 98,9 [1C50AAFE] [DFAB2A67] CRC32
06 98,8 [FA002479] [8129E813] CRC32
07 98,8 [0F12A8AC] [410383F0] CRC32
08 98,9 [20735F5D] [4F927B73] CRC32
09 98,8 [08BC2541] [55C13DE4] CRC32
10 98,8 [2B694DC1] [F4ECBB5C] CRC32
11 98,8 [0E375034] [91894996] CRC32
12 98,8 [BBED9EDB] [BCA06AB5] CRC32
13 93,1 [D53C7F75] [73D48AE3] CRC32
14 98,9 [CC277482] [F150811A] CRC32
15 98,9 [3632FC32] [DBEFEA54] CRC32
16 98,0 [50D31521] [D94EBBF7] CRC32
17 98,8 [AAA834E9] [7C40358E] CRC32
18 98,8 [A8C2E788] [EC7C2BED] CRC32

AllMusic Review by Heather Phares

Atlantic Starr's Ultimate Collection lives up to its name, gathering hits that span the group's two-decade existence. From early singles such as "Stand Up," "When Love Calls," and "Touch a Four Leaf Clover" to their later hits like "Always," "My First Love," and "Masterpiece." With 18 tracks covering their years on A&M, Warner, and Reprise, this album is indeed the ultimate collection of Atlantic Starr's career highlights.

If you like the topic, please click share to help develop our site.

To download the file disable ad blocking, and reload the page.

disable adblock How to disable ad blocking?

Download by magnet link 535 MB Download Torrent

Login using:

Similar topics



   
Current time is: 21-Jul 16:35 :: All times are UTC + 3