Atlantic Starr - Greatest Hits
Жанр: Funk, Soul, Disco
Носитель: CD
Страна-производитель диска (релиза): США
Год издания: 1997
Издатель (лейбл): Dominion
Номер по каталогу: 3878-2
Аудиокодек: FLAC (*.flac)
Тип рипа: tracks+.cue
Битрейт аудио: lossless
Продолжительность: 45:17
Источник (релизер): What.CD
Наличие сканов в содержимом раздачи: нет
Треклист:
01. Secret Lovers (4:26)
02. Circles (4:57)
03. One Lover at a Time (4:00)
04. Touch a Four Leaf Clover (4:30)
05. Silver Shadow (4:43)
06. Always (3:48)
07. Love Crazy (4:45)
08. My First Love (5:13)
09. If Your Heart Isn't in It (3:54)
10. Masterpiece (5:01)

Лог создания рипа

Exact Audio Copy V1.0 beta 3 from 29. August 2011
EAC extraction logfile from 25. February 2013, 14:41
Atlantic Starr / Greatest Hits
Used drive : HL-DT-STDVDRAM GH24NS90 Adapter: 1 ID: 0
Read mode : Secure
Utilize accurate stream : Yes
Defeat audio cache : Yes
Make use of C2 pointers : No
Read offset correction : 6
Overread into Lead-In and Lead-Out : No
Fill up missing offset samples with silence : Yes
Delete leading and trailing silent blocks : No
Null samples used in CRC calculations : Yes
Used interface : Native Win32 interface for Win NT & 2000
Gap handling : Appended to previous track
Used output format : User Defined Encoder
Selected bitrate : 896 kBit/s
Quality : High
Add ID3 tag : No
Command line compressor : C:\Program Files (x86)\FLAC\flac.exe
Additional command line options : -8 -V -T "ARTIST=%artist%" -T "TITLE=%title%" -T "ALBUM=%albumtitle%" -T "DATE=%year%" -T "TRACKNUMBER=%tracknr%" -T "GENRE=%genre%" -T "PERFORMER=%albuminterpret%" -T "COMPOSER=%composer%" %haslyrics%--tag-from-file=LYRICS="%lyricsfile%"%haslyrics% -T "ALBUMARTIST=%albumartist%" -T "DISCNUMBER=%cdnumber%" -T "TOTALDISCS=%totalcds%" -T "TOTALTRACKS=%numtracks%" -T "COMMENT=%comment%" %source% -o %dest%
TOC of the extracted CD
Track | Start | Length | Start sector | End sector
---------------------------------------------------------
1 | 0:00.00 | 4:26.15 | 0 | 19964
2 | 4:26.15 | 4:57.22 | 19965 | 42261
3 | 9:23.37 | 4:00.08 | 42262 | 60269
4 | 13:23.45 | 4:29.60 | 60270 | 80504
5 | 17:53.30 | 4:43.10 | 80505 | 101739
6 | 22:36.40 | 3:48.27 | 101740 | 118866
7 | 26:24.67 | 4:45.30 | 118867 | 140271
8 | 31:10.22 | 5:13.23 | 140272 | 163769
9 | 36:23.45 | 3:53.70 | 163770 | 181314
10 | 40:17.40 | 5:00.70 | 181315 | 203884
Track 1
Filename C:\EAC\Atlantic Starr - Greatest Hits (1997) [FLAC]\01 - Secret Lovers.wav
Pre-gap length 0:00:02.00
Peak level 98.1 %
Extraction speed 1.0 X
Track quality 100.0 %
Test CRC 9D9B5414
Copy CRC 9D9B5414
Accurately ripped (confidence 2) [AFDEB69A] (AR v1)
Copy OK
Track 2
Filename C:\EAC\Atlantic Starr - Greatest Hits (1997) [FLAC]\02 - Circles.wav
Pre-gap length 0:00:01.57
Peak level 98.2 %
Extraction speed 1.2 X
Track quality 100.0 %
Test CRC 8502B11F
Copy CRC 8502B11F
Accurately ripped (confidence 2) [C9229A0F] (AR v1)
Copy OK
Track 3
Filename C:\EAC\Atlantic Starr - Greatest Hits (1997) [FLAC]\03 - One Lover At A Time.wav
Pre-gap length 0:00:01.56
Peak level 98.8 %
Extraction speed 1.2 X
Track quality 100.0 %
Test CRC FAFEDC60
Copy CRC FAFEDC60
Accurately ripped (confidence 2) [F8D7D0D4] (AR v1)
Copy OK
Track 4
Filename C:\EAC\Atlantic Starr - Greatest Hits (1997) [FLAC]\04 - Touch A Four Leaf Clover.wav
Pre-gap length 0:00:01.64
Peak level 98.0 %
Extraction speed 1.4 X
Track quality 100.0 %
Test CRC CC160A93
Copy CRC CC160A93
Accurately ripped (confidence 2) [F39D0989] (AR v1)
Copy OK
Track 5
Filename C:\EAC\Atlantic Starr - Greatest Hits (1997) [FLAC]\05 - Silver Shadow.wav
Pre-gap length 0:00:01.64
Peak level 98.8 %
Extraction speed 1.5 X
Track quality 100.0 %
Test CRC 9B98C828
Copy CRC 9B98C828
Accurately ripped (confidence 2) [9797B1A0] (AR v1)
Copy OK
Track 6
Filename C:\EAC\Atlantic Starr - Greatest Hits (1997) [FLAC]\06 - Always.wav
Pre-gap length 0:00:01.64
Peak level 98.8 %
Extraction speed 1.5 X
Track quality 100.0 %
Test CRC 0C123B89
Copy CRC 0C123B89
Accurately ripped (confidence 2) [DDD69775] (AR v1)
Copy OK
Track 7
Filename C:\EAC\Atlantic Starr - Greatest Hits (1997) [FLAC]\07 - Love Crazy.wav
Pre-gap length 0:00:01.62
Peak level 98.4 %
Extraction speed 1.7 X
Track quality 100.0 %
Test CRC 87FA0812
Copy CRC 87FA0812
Accurately ripped (confidence 2) [112E33D9] (AR v1)
Copy OK
Track 8
Filename C:\EAC\Atlantic Starr - Greatest Hits (1997) [FLAC]\08 - My First Love.wav
Pre-gap length 0:00:01.62
Peak level 98.5 %
Extraction speed 1.8 X
Track quality 100.0 %
Test CRC 2CA006FD
Copy CRC 2CA006FD
Accurately ripped (confidence 2) [4ECB1124] (AR v1)
Copy OK
Track 9
Filename C:\EAC\Atlantic Starr - Greatest Hits (1997) [FLAC]\09 - If Your Heart Isn't In It.wav
Pre-gap length 0:00:01.60
Peak level 98.4 %
Extraction speed 1.8 X
Track quality 100.0 %
Test CRC 03806759
Copy CRC 03806759
Accurately ripped (confidence 2) [50AC724B] (AR v1)
Copy OK
Track 10
Filename C:\EAC\Atlantic Starr - Greatest Hits (1997) [FLAC]\10 - Masterpiece.wav
Pre-gap length 0:00:01.64
Peak level 100.0 %
Extraction speed 1.9 X
Track quality 100.0 %
Test CRC 5FA733A2
Copy CRC 5FA733A2
Accurately ripped (confidence 2) [A65A70F4] (AR v1)
Copy OK
All tracks accurately ripped
No errors occurred
End of status report
---- CUETools DB Plugin V2.1.3
[CTDB TOCID: fNScEnzL6Tq6C38nnPvnt37wgs8-] found, Submit result: fNScEnzL6Tq6C38nnPvnt37wgs8- has been confirmed
[88d2677d] (1/1) Accurately ripped
==== Log checksum 940ECFEE008D53FF784DBC17958554175C32ACD07706F6177E0687D9A4F2D81D ====

Содержание индексной карты (.CUE)

REM GENRE R&B
REM DATE 1997
REM DISCID 930A9E0A
REM COMMENT "ExactAudioCopy v1.0b3"
PERFORMER "Atlantic Starr"
TITLE "Greatest Hits"
FILE "01 - Secret Lovers.wav" WAVE
TRACK 01 AUDIO
TITLE "Secret Lovers"
PERFORMER "Atlantic Starr"
INDEX 01 00:00:00
TRACK 02 AUDIO
TITLE "Circles"
PERFORMER "Atlantic Starr"
INDEX 00 04:24:47
FILE "02 - Circles.wav" WAVE
INDEX 01 00:00:00
TRACK 03 AUDIO
TITLE "One Lover at a Time"
PERFORMER "Atlantic Starr"
INDEX 00 04:55:55
FILE "03 - One Lover at a Time.wav" WAVE
INDEX 01 00:00:00
TRACK 04 AUDIO
TITLE "Touch a Four Leaf Clover"
PERFORMER "Atlantic Starr"
INDEX 00 03:58:35
FILE "04 - Touch a Four Leaf Clover.wav" WAVE
INDEX 01 00:00:00
TRACK 05 AUDIO
TITLE "Silver Shadow"
PERFORMER "Atlantic Starr"
INDEX 00 04:28:12
FILE "05 - Silver Shadow.wav" WAVE
INDEX 01 00:00:00
TRACK 06 AUDIO
TITLE "Always"
PERFORMER "Atlantic Starr"
INDEX 00 04:41:37
FILE "06 - Always.wav" WAVE
INDEX 01 00:00:00
TRACK 07 AUDIO
TITLE "Love Crazy"
PERFORMER "Atlantic Starr"
INDEX 00 03:46:55
FILE "07 - Love Crazy.wav" WAVE
INDEX 01 00:00:00
TRACK 08 AUDIO
TITLE "My First Love"
PERFORMER "Atlantic Starr"
INDEX 00 04:43:58
FILE "08 - My First Love.wav" WAVE
INDEX 01 00:00:00
TRACK 09 AUDIO
TITLE "If Your Heart Isn't in It"
PERFORMER "Atlantic Starr"
INDEX 00 05:11:53
FILE "09 - If Your Heart Isn't in It.wav" WAVE
INDEX 01 00:00:00
TRACK 10 AUDIO
TITLE "Masterpiece"
PERFORMER "Atlantic Starr"
INDEX 00 03:52:22
FILE "10 - Masterpiece.wav" WAVE
INDEX 01 00:00:00

Отчет CUETools

[CUETools log; Date: 06.06.2017 17:46:51; Version: 2.1.5]
[CTDB TOCID: fNScEnzL6Tq6C38nnPvnt37wgs8-] found.
Track | CTDB Status
1 | (6/6) Accurately ripped
2 | (6/6) Accurately ripped
3 | (6/6) Accurately ripped
4 | (6/6) Accurately ripped
5 | (6/6) Accurately ripped
6 | (6/6) Accurately ripped
7 | (6/6) Accurately ripped
8 | (6/6) Accurately ripped
9 | (6/6) Accurately ripped
10 | (6/6) Accurately ripped
[AccurateRip ID: 0010fb13-0087e076-930a9e0a] found.
Track [ CRC | V2 ] Status
01 [afdeb69a|235f8dd5] (2+2/4) Accurately ripped
02 [c9229a0f|0f0f9165] (2+2/4) Accurately ripped
03 [f8d7d0d4|341ace15] (2+2/4) Accurately ripped
04 [f39d0989|92fa0b9f] (2+2/4) Accurately ripped
05 [9797b1a0|7f9fd5ad] (2+2/4) Accurately ripped
06 [ddd69775|869822ae] (2+2/4) Accurately ripped
07 [112e33d9|eff190e8] (2+2/4) Accurately ripped
08 [4ecb1124|c06189ef] (2+2/4) Accurately ripped
09 [50ac724b|d622daa0] (2+2/4) Accurately ripped
10 [a65a70f4|32af7995] (2+2/4) Accurately ripped
Track Peak [ CRC32 ] [W/O NULL] [ LOG ]
-- 100,0 [AE475F85] [FFA49E0C]
01 98,1 [9D9B5414] [10F6A124] CRC32
02 98,2 [8502B11F] [FFB384D4] CRC32
03 98,8 [FAFEDC60] [828B7B20] CRC32
04 98,0 [CC160A93] [566CA3D9] CRC32
05 98,8 [9B98C828] [4ADC20C4] CRC32
06 98,8 [0C123B89] [0EB4E3C0] CRC32
07 98,4 [87FA0812] [B25D1658] CRC32
08 98,5 [2CA006FD] [37F265F3] CRC32
09 98,4 [03806759] [093137B1] CRC32
10 100,0 [5FA733A2] [4F67900D] CRC32

If you like the topic, please click share to help develop our site.

To download the file disable ad blocking, and reload the page.

disable adblock How to disable ad blocking?

Download by magnet link 274 MB Download Torrent

Login using:

Similar topics



   
Current time is: 27-May 02:01 :: All times are UTC + 3