Ann Hampton Callaway - From Sassy to Divine: The Sarah Vaughan Project
Жанр: Vocal Jazz
Носитель: CD
Страна-производитель диска (релиза): США
Год издания: 2014
Издатель (лейбл): Shanachie
Номер по каталогу: 5420
Аудиокодек: FLAC (*.flac)
Тип рипа: tracks+.cue
Битрейт аудио: lossless
Продолжительность: 63:01
Источник (релизер): zooropa320
Наличие сканов в содержимом раздачи: нет
Треклист:
01. Introduction (0:08)
02. I'm Gonna Live Till I Die (2:26)
03. A Night in Tunisia (Interlude) (5:09)
04. Misty (5:34)
05. In a Mellow Tone (4:46)
06. Chelsea Bridge (6:57)
07. Whatever Lola Wants (3:26)
08. Someone to Watch over Me (6:16)
09. Mean to Me (3:48)
10. Wave (6:39)
11. Send in the Clowns (6:25)
12. Can't Give You Anything But Love/That's All (4:49)
13. Un Bel Di/Poor Butterfly (6:38)

Лог создания рипа

Exact Audio Copy V1.3 from 2. September 2016
EAC extraction logfile from 29. March 2017, 21:34
Ann Hampton Callaway / From Sassy to Divine: The Sarah Vaughan Project
Used drive : ATAPI iHAS424 B Adapter: 1 ID: 0
Read mode : Secure
Utilize accurate stream : Yes
Defeat audio cache : Yes
Make use of C2 pointers : No
Read offset correction : 6
Overread into Lead-In and Lead-Out : No
Fill up missing offset samples with silence : Yes
Delete leading and trailing silent blocks : No
Null samples used in CRC calculations : Yes
Used interface : Native Win32 interface for Win NT & 2000
Gap handling : Appended to previous track
Used output format : User Defined Encoder
Selected bitrate : 1024 kBit/s
Quality : High
Add ID3 tag : No
Command line compressor : C:\uber\utils\flac.exe
Additional command line options : -8 -V -T "ARTIST=%artist%" -T "TITLE=%title%" -T "ALBUM=%albumtitle%" -T "DATE=%year%" -T "TRACKNUMBER=%tracknr1%" -T "GENRE=%genre%" -T "PERFORMER=%albuminterpret%" -T "COMPOSER=%composer%" %haslyrics%--tag-from-file=LYRICS="%lyricsfile%"%haslyrics% -T "ALBUMARTIST=%albumartist%" -T "DISCNUMBER=%cdnumber%" -T "DISCTOTAL=%totalcds%" -T "TRACKTOTAL=%numtracks%" -T "COMMENT=%comment%" %source% -o %dest%
TOC of the extracted CD
Track | Start | Length | Start sector | End sector
---------------------------------------------------------
1 | 0:00.00 | 0:08.06 | 0 | 605
2 | 0:08.06 | 2:25.67 | 606 | 11547
3 | 2:33.73 | 5:09.07 | 11548 | 34729
4 | 7:43.05 | 5:33.65 | 34730 | 59769
5 | 13:16.70 | 4:46.02 | 59770 | 81221
6 | 18:02.72 | 6:56.44 | 81222 | 112465
7 | 24:59.41 | 3:26.29 | 112466 | 127944
8 | 28:25.70 | 6:16.16 | 127945 | 156160
9 | 34:42.11 | 3:47.58 | 156161 | 173243
10 | 38:29.69 | 6:38.66 | 173244 | 203159
11 | 45:08.60 | 6:25.32 | 203160 | 232066
12 | 51:34.17 | 4:49.30 | 232067 | 253771
13 | 56:23.47 | 6:37.59 | 253772 | 283605
Track 1
Filename C:\uber\rip\FLAC\From Sassy to Divine The Sarah Vaughan Project\01 Introduction.wav
Pre-gap length 0:00:02.00
Peak level 88.8 %
Extraction speed 0.3 X
Track quality 100.0 %
Test CRC 6DEFA775
Copy CRC 6DEFA775
Accurately ripped (confidence 5) [69491E64] (AR v2)
Copy OK
Track 2
Filename C:\uber\rip\FLAC\From Sassy to Divine The Sarah Vaughan Project\02 I'm Gonna Live 'Till I Die.wav
Peak level 97.7 %
Extraction speed 1.7 X
Track quality 100.0 %
Test CRC 57A8341E
Copy CRC 57A8341E
Accurately ripped (confidence 5) [B8F709D9] (AR v2)
Copy OK
Track 3
Filename C:\uber\rip\FLAC\From Sassy to Divine The Sarah Vaughan Project\03 A Night in Tunisia (Interlude).wav
Pre-gap length 0:00:01.13
Peak level 97.0 %
Extraction speed 1.6 X
Track quality 99.9 %
Test CRC 10338AC1
Copy CRC 10338AC1
Accurately ripped (confidence 5) [078CFC53] (AR v2)
Copy OK
Track 4
Filename C:\uber\rip\FLAC\From Sassy to Divine The Sarah Vaughan Project\04 Misty.wav
Pre-gap length 0:00:04.01
Peak level 96.6 %
Extraction speed 2.4 X
Track quality 100.0 %
Test CRC 5D27A97C
Copy CRC 5D27A97C
Accurately ripped (confidence 5) [BA311C17] (AR v2)
Copy OK
Track 5
Filename C:\uber\rip\FLAC\From Sassy to Divine The Sarah Vaughan Project\05 In a Mellow Tone.wav
Pre-gap length 0:00:00.24
Peak level 96.9 %
Extraction speed 2.5 X
Track quality 100.0 %
Test CRC FA16FF68
Copy CRC FA16FF68
Accurately ripped (confidence 5) [1DCCD415] (AR v2)
Copy OK
Track 6
Filename C:\uber\rip\FLAC\From Sassy to Divine The Sarah Vaughan Project\06 Chelsea Bridge.wav
Peak level 97.2 %
Extraction speed 2.9 X
Track quality 100.0 %
Test CRC 0136D125
Copy CRC 0136D125
Accurately ripped (confidence 5) [90DBCE87] (AR v2)
Copy OK
Track 7
Filename C:\uber\rip\FLAC\From Sassy to Divine The Sarah Vaughan Project\07 Whatever Lola Wants.wav
Pre-gap length 0:00:01.05
Peak level 97.7 %
Extraction speed 2.8 X
Track quality 100.0 %
Test CRC 43877CF8
Copy CRC 43877CF8
Accurately ripped (confidence 5) [AE215967] (AR v2)
Copy OK
Track 8
Filename C:\uber\rip\FLAC\From Sassy to Divine The Sarah Vaughan Project\08 Someone to Watch Over Me.wav
Pre-gap length 0:00:00.22
Peak level 96.0 %
Extraction speed 3.2 X
Track quality 100.0 %
Test CRC F631E5C0
Copy CRC F631E5C0
Accurately ripped (confidence 5) [12BAD104] (AR v2)
Copy OK
Track 9
Filename C:\uber\rip\FLAC\From Sassy to Divine The Sarah Vaughan Project\09 Mean to Me.wav
Pre-gap length 0:00:00.09
Peak level 96.8 %
Extraction speed 3.1 X
Track quality 100.0 %
Test CRC 764A4EF7
Copy CRC 764A4EF7
Accurately ripped (confidence 5) [7981767B] (AR v2)
Copy OK
Track 10
Filename C:\uber\rip\FLAC\From Sassy to Divine The Sarah Vaughan Project\10 Wave.wav
Pre-gap length 0:00:00.05
Peak level 97.0 %
Extraction speed 3.5 X
Track quality 100.0 %
Test CRC 7E55B4EC
Copy CRC 7E55B4EC
Accurately ripped (confidence 5) [F036F6C1] (AR v2)
Copy OK
Track 11
Filename C:\uber\rip\FLAC\From Sassy to Divine The Sarah Vaughan Project\11 Send in the Clowns.wav
Pre-gap length 0:00:02.00
Peak level 96.4 %
Extraction speed 3.0 X
Track quality 99.9 %
Test CRC 659A293A
Copy CRC 659A293A
Accurately ripped (confidence 5) [663FD7F2] (AR v2)
Copy OK
Track 12
Filename C:\uber\rip\FLAC\From Sassy to Divine The Sarah Vaughan Project\12 Can't Give You Anything but Love , That's All.wav
Pre-gap length 0:00:00.22
Peak level 97.2 %
Extraction speed 3.8 X
Track quality 100.0 %
Test CRC 59DE76CB
Copy CRC 59DE76CB
Accurately ripped (confidence 5) [C72FD07B] (AR v2)
Copy OK
Track 13
Filename C:\uber\rip\FLAC\From Sassy to Divine The Sarah Vaughan Project\13 Un Bel Di , Poor Butterfly.wav
Pre-gap length 0:00:00.06
Peak level 96.5 %
Extraction speed 4.0 X
Track quality 100.0 %
Test CRC A177FB32
Copy CRC A177FB32
Accurately ripped (confidence 5) [A71A655B] (AR v2)
Copy OK
All tracks accurately ripped
No errors occurred
End of status report
---- CUETools DB Plugin V2.1.6
[CTDB TOCID: NoZpDRIx.stdSrlEbSEGP44aCEY-] found
Submit result: NoZpDRIx.stdSrlEbSEGP44aCEY- has been confirmed
Track | CTDB Status
1 | (6/6) Accurately ripped
2 | (6/6) Accurately ripped
3 | (6/6) Accurately ripped
4 | (6/6) Accurately ripped
5 | (5/6) Accurately ripped
6 | (6/6) Accurately ripped
7 | (6/6) Accurately ripped
8 | (6/6) Accurately ripped
9 | (6/6) Accurately ripped
10 | (5/6) Accurately ripped
11 | (6/6) Accurately ripped
12 | (6/6) Accurately ripped
13 | (6/6) Accurately ripped
==== Log checksum 85294915C8990E0A09B14D830D660CFD61134823BD51E83B0BF3553959D646AA ====

Содержание индексной карты (.CUE)

REM GENRE Jazz
REM DATE 2014
REM DISCID 9C0EC50D
REM COMMENT "ExactAudioCopy v1.3"
PERFORMER "Ann Hampton Callaway"
TITLE "From Sassy to Divine: The Sarah Vaughan Project"
FILE "01 - Introduction.wav" WAVE
TRACK 01 AUDIO
TITLE "Introduction"
PERFORMER "Ann Hampton Callaway"
ISRC US7SF1455646
INDEX 01 00:00:00
FILE "02 - I'm Gonna Live Till I Die.wav" WAVE
TRACK 02 AUDIO
TITLE "I'm Gonna Live Till I Die"
PERFORMER "Ann Hampton Callaway"
ISRC US7SF1455647
INDEX 01 00:00:00
TRACK 03 AUDIO
TITLE "A Night in Tunisia (Interlude)"
PERFORMER "Ann Hampton Callaway"
ISRC US7SF1455648
INDEX 00 02:24:57
FILE "03 - A Night in Tunisia (Interlude).wav" WAVE
INDEX 01 00:00:00
TRACK 04 AUDIO
TITLE "Misty"
PERFORMER "Ann Hampton Callaway"
ISRC US7SF1455649
INDEX 00 05:05:06
FILE "04 - Misty.wav" WAVE
INDEX 01 00:00:00
TRACK 05 AUDIO
TITLE "In a Mellow Tone"
PERFORMER "Ann Hampton Callaway"
ISRC US7SF1455650
INDEX 00 05:33:47
FILE "05 - In a Mellow Tone.wav" WAVE
INDEX 01 00:00:00
FILE "06 - Chelsea Bridge.wav" WAVE
TRACK 06 AUDIO
TITLE "Chelsea Bridge"
PERFORMER "Ann Hampton Callaway"
ISRC US7SF1455651
INDEX 01 00:00:00
TRACK 07 AUDIO
TITLE "Whatever Lola Wants"
PERFORMER "Ann Hampton Callaway"
ISRC US7SF1455652
INDEX 00 06:55:40
FILE "07 - Whatever Lola Wants.wav" WAVE
INDEX 01 00:00:00
TRACK 08 AUDIO
TITLE "Someone to Watch over Me"
PERFORMER "Ann Hampton Callaway"
ISRC US7SF1455653
INDEX 00 03:26:12
FILE "08 - Someone to Watch over Me.wav" WAVE
INDEX 01 00:00:00
TRACK 09 AUDIO
TITLE "Mean to Me"
PERFORMER "Ann Hampton Callaway"
ISRC US7SF1455654
INDEX 00 06:16:09
FILE "09 - Mean to Me.wav" WAVE
INDEX 01 00:00:00
TRACK 10 AUDIO
TITLE "Wave"
PERFORMER "Ann Hampton Callaway"
ISRC US7SF1455655
INDEX 00 03:47:54
FILE "10 - Wave.wav" WAVE
INDEX 01 00:00:00
TRACK 11 AUDIO
TITLE "Send in the Clowns"
PERFORMER "Ann Hampton Callaway"
ISRC US7SF1455656
INDEX 00 06:36:66
FILE "11 - Send in the Clowns.wav" WAVE
INDEX 01 00:00:00
TRACK 12 AUDIO
TITLE "Can't Give You Anything But Love/That's All"
PERFORMER "Ann Hampton Callaway"
ISRC US7SF1455657
INDEX 00 06:25:15
FILE "12 - Can't Give You Anything But Love,That's All.wav" WAVE
INDEX 01 00:00:00
TRACK 13 AUDIO
TITLE "Un Bel Di/Poor Butterfly"
PERFORMER "Ann Hampton Callaway"
ISRC US7SF1455658
INDEX 00 04:49:25
FILE "13 - Un Bel Di,Poor Butterfly.wav" WAVE
INDEX 01 00:00:00

Отчет CUETools

[CUETools log; Date: 08.06.2017 0:43:52; Version: 2.1.5]
[CTDB TOCID: NoZpDRIx.stdSrlEbSEGP44aCEY-] found.
Track | CTDB Status
1 | (7/7) Accurately ripped
2 | (7/7) Accurately ripped
3 | (7/7) Accurately ripped
4 | (7/7) Accurately ripped
5 | (6/7) Accurately ripped
6 | (7/7) Accurately ripped
7 | (7/7) Accurately ripped
8 | (7/7) Accurately ripped
9 | (7/7) Accurately ripped
10 | (6/7) Accurately ripped
11 | (7/7) Accurately ripped
12 | (7/7) Accurately ripped
13 | (7/7) Accurately ripped
[AccurateRip ID: 001a66f9-0115b0e2-9c0ec50d] found.
Track [ CRC | V2 ] Status
01 [3399407e|69491e64] (0+5/5) Accurately ripped
02 [d8a5f1e6|b8f709d9] (0+5/5) Accurately ripped
03 [15f1c679|078cfc53] (0+5/5) Accurately ripped
04 [4dc694f5|ba311c17] (0+5/5) Accurately ripped
05 [a8121f88|1dccd415] (0+5/5) Accurately ripped
06 [8b5f1107|90dbce87] (0+5/5) Accurately ripped
07 [11178484|ae215967] (0+5/5) Accurately ripped
08 [4681b0b9|12bad104] (0+5/5) Accurately ripped
09 [c82cafb5|7981767b] (0+5/5) Accurately ripped
10 [2cfcf607|f036f6c1] (0+5/5) Accurately ripped
11 [63b5643f|663fd7f2] (0+5/5) Accurately ripped
12 [8a7532e4|c72fd07b] (0+5/5) Accurately ripped
13 [154b0a17|a71a655b] (0+5/5) Accurately ripped
Track Peak [ CRC32 ] [W/O NULL] [ LOG ]
-- 97,7 [39E3CC9F] [E1BEA993]
01 88,8 [6DEFA775] [24BA6154] CRC32
02 97,7 [57A8341E] [6FA8481A] CRC32
03 97,0 [10338AC1] [90F95AA9] CRC32
04 96,6 [5D27A97C] [A113463F] CRC32
05 96,9 [FA16FF68] [7E5D52AF] CRC32
06 97,2 [0136D125] [38C8ADFC] CRC32
07 97,7 [43877CF8] [D63E99B3] CRC32
08 96,0 [F631E5C0] [C5995753] CRC32
09 96,8 [764A4EF7] [FD76E2A2] CRC32
10 97,0 [7E55B4EC] [359867A3] CRC32
11 96,4 [659A293A] [15858048] CRC32
12 97,2 [59DE76CB] [21213285] CRC32
13 96,5 [A177FB32] [8CC6BE50] CRC32

AllMusic Review by Matt Collar

Recorded live at Dizzy's Club Coca-Cola at Lincoln Center in New York City, From Sassy to Divine: The Sarah Vaughan Project features vocalist Ann Hampton Callaway paying tribute to jazz vocal legend Sarah Vaughan. Backing Callaway here is her longtime ensemble featuring pianist Ted Rosenthal, bassist Dean Johnson, and drummer Tim Horner with special guests trumpeter Randy Sandke and saxophonist Dick Oatts. A journeyman cabaret artist, Broadway performer, and singer/songwriter, Callaway leads her small group through such Vaughan-centric standards as "I'm Gonna Live Till I Die," "Misty," "Whatever Lola Wants," and many more.

If you like the topic, please click share to help develop our site.

To download the file disable ad blocking, and reload the page.

disable adblock How to disable ad blocking?

Download by magnet link 317 MB Download Torrent

Login using:

Similar topics



   
Current time is: 27-May 03:12 :: All times are UTC + 3