Ann Hampton Callaway - Slow
Жанр: Vocal Jazz
Носитель: CD
Страна-производитель диска (релиза): США
Год издания: 2004
Издатель (лейбл): Shanachie
Номер по каталогу: 5118
Аудиокодек: FLAC (*.flac)
Тип рипа: tracks+.cue
Битрейт аудио: lossless
Продолжительность: 60:05
Источник (релизер): CaptainSpanky
Наличие сканов в содержимом раздачи: нет
Треклист:
01. Slow (5:12)
02. You Belong to Me (4:29)
03. Will You Love Me Tomorrow? (6:52)
04. Tonight You're All Mine (with Carole King) (3:44)
05. Someone to Light Up My Life (5:53)
06. I've Dreamed of You (5:08)
07. Lullaby in Blue (5:15)
08. Moondance (with Liz Callaway) (4:01)
09. Never Really Mine to Lose (4:19)
10. Love Dance (6:01)
11. Never Let Me Go (4:31)
12. My Answered Prayer (4:40)

Лог создания рипа

Exact Audio Copy V1.3 from 2. September 2016
EAC extraction logfile from 24. February 2017, 19:05
Ann Hampton Callaway / Slow
Used drive : HL-DT-STBD-RE WH14NS40 Adapter: 1 ID: 0
Read mode : Secure
Utilize accurate stream : Yes
Defeat audio cache : Yes
Make use of C2 pointers : No
Read offset correction : 6
Overread into Lead-In and Lead-Out : No
Fill up missing offset samples with silence : Yes
Delete leading and trailing silent blocks : No
Null samples used in CRC calculations : Yes
Used interface : Native Win32 interface for Win NT & 2000
Gap handling : Appended to previous track
Used output format : User Defined Encoder
Selected bitrate : 1024 kBit/s
Quality : High
Add ID3 tag : No
Command line compressor : F:\Audio\Exact Audio Copy\Flac\flac.exe
Additional command line options : -8 -e -p -V -T "ARTIST=%artist%" -T "TITLE=%title%" -T "ALBUM=%albumtitle%" -T "DATE=%year%" -T "TRACKNUMBER=%tracknr%" -T "GENRE=%genre%" -T "PERFORMER=%albuminterpret%" -T "COMPOSER=%composer%" %haslyrics%--tag-from-file=LYRICS="%lyricsfile%"%haslyrics% -T "ALBUMARTIST=%albumartist%" -T "DISCNUMBER=%cdnumber%" -T "TOTALDISCS=%totalcds%" -T "TOTALTRACKS=%numtracks%" -T "COMMENT=%comment%" %source% -o %dest%
TOC of the extracted CD
Track | Start | Length | Start sector | End sector
---------------------------------------------------------
1 | 0:00.00 | 5:11.48 | 0 | 23372
2 | 5:11.48 | 4:28.74 | 23373 | 43546
3 | 9:40.47 | 6:51.61 | 43547 | 74432
4 | 16:32.33 | 3:43.62 | 74433 | 91219
5 | 20:16.20 | 5:52.56 | 91220 | 117675
6 | 26:09.01 | 5:08.32 | 117676 | 140807
7 | 31:17.33 | 5:15.36 | 140808 | 164468
8 | 36:32.69 | 4:01.37 | 164469 | 182580
9 | 40:34.31 | 4:19.15 | 182581 | 202020
10 | 44:53.46 | 6:00.66 | 202021 | 229086
11 | 50:54.37 | 4:30.71 | 229087 | 249407
12 | 55:25.33 | 4:39.61 | 249408 | 270393
Track 1
Filename F:\Audio\Rips\01 - Slow.wav
Pre-gap length 0:00:02.00
Peak level 99.9 %
Extraction speed 3.5 X
Track quality 100.0 %
Test CRC B3D389E9
Copy CRC B3D389E9
Accurately ripped (confidence 7) [0149EEB3] (AR v2)
Copy OK
Track 2
Filename F:\Audio\Rips\02 - You Belong to Me.wav
Pre-gap length 0:00:02.00
Peak level 99.9 %
Extraction speed 1.2 X
Track quality 100.0 %
Test CRC B4D0E442
Copy CRC B4D0E442
Accurately ripped (confidence 7) [EE11A7DF] (AR v2)
Copy OK
Track 3
Filename F:\Audio\Rips\03 - Will You Love Me Tomorrow.wav
Pre-gap length 0:00:02.00
Peak level 99.9 %
Extraction speed 1.4 X
Track quality 100.0 %
Test CRC 80BB0E7F
Copy CRC 80BB0E7F
Accurately ripped (confidence 7) [27F49951] (AR v2)
Copy OK
Track 4
Filename F:\Audio\Rips\04 - Tonight You´re All Mine.wav
Pre-gap length 0:00:00.50
Peak level 99.9 %
Extraction speed 1.4 X
Track quality 100.0 %
Test CRC A16B24DE
Copy CRC A16B24DE
Accurately ripped (confidence 7) [C7226FD2] (AR v2)
Copy OK
Track 5
Filename F:\Audio\Rips\05 - Someone to Light Up My Life.wav
Pre-gap length 0:00:02.00
Peak level 99.9 %
Extraction speed 1.6 X
Track quality 100.0 %
Test CRC 714466F0
Copy CRC 714466F0
Accurately ripped (confidence 7) [7915CB31] (AR v2)
Copy OK
Track 6
Filename F:\Audio\Rips\06 - I´ve Dreamed of You.wav
Pre-gap length 0:00:02.00
Peak level 99.9 %
Extraction speed 1.5 X
Track quality 99.9 %
Test CRC 8A70CF8A
Copy CRC 8A70CF8A
Accurately ripped (confidence 7) [1162217D] (AR v2)
Copy OK
Track 7
Filename F:\Audio\Rips\07 - Lullaby in Blue.wav
Pre-gap length 0:00:02.00
Peak level 99.9 %
Extraction speed 1.8 X
Track quality 100.0 %
Test CRC 51FE383B
Copy CRC 51FE383B
Accurately ripped (confidence 7) [786CA40B] (AR v2)
Copy OK
Track 8
Filename F:\Audio\Rips\08 - Moondance.wav
Pre-gap length 0:00:02.00
Peak level 99.9 %
Extraction speed 1.8 X
Track quality 100.0 %
Test CRC 58F644A8
Copy CRC 58F644A8
Accurately ripped (confidence 7) [0F90A215] (AR v2)
Copy OK
Track 9
Filename F:\Audio\Rips\09 - Never Really Mine to Lose.wav
Pre-gap length 0:00:02.00
Peak level 99.9 %
Extraction speed 1.9 X
Track quality 100.0 %
Test CRC 301194CD
Copy CRC 301194CD
Accurately ripped (confidence 7) [1BC5C201] (AR v2)
Copy OK
Track 10
Filename F:\Audio\Rips\10 - Love Dance.wav
Pre-gap length 0:00:02.00
Peak level 99.9 %
Extraction speed 1.9 X
Track quality 99.9 %
Test CRC 9ABB42D9
Copy CRC 9ABB42D9
Accurately ripped (confidence 7) [8B28DFA8] (AR v2)
Copy OK
Track 11
Filename F:\Audio\Rips\11 - Never Let Me Go.wav
Pre-gap length 0:00:02.00
Peak level 99.9 %
Extraction speed 2.1 X
Track quality 100.0 %
Test CRC B8936594
Copy CRC B8936594
Accurately ripped (confidence 7) [A26F34DB] (AR v2)
Copy OK
Track 12
Filename F:\Audio\Rips\12 - My Answered Prayer.wav
Pre-gap length 0:00:02.00
Peak level 99.9 %
Extraction speed 2.1 X
Track quality 100.0 %
Test CRC 9468742E
Copy CRC 9468742E
Accurately ripped (confidence 7) [B53F33E9] (AR v2)
Copy OK
All tracks accurately ripped
No errors occurred
End of status report
---- CUETools DB Plugin V2.1.6
[CTDB TOCID: hTr_jRuYQM7ir.s09PeRAwf7FlQ-] found
Submit result: hTr_jRuYQM7ir.s09PeRAwf7FlQ- has been confirmed
Track | CTDB Status
1 | (3/3) Accurately ripped
2 | (3/3) Accurately ripped
3 | (3/3) Accurately ripped
4 | (3/3) Accurately ripped
5 | (3/3) Accurately ripped
6 | (3/3) Accurately ripped
7 | (3/3) Accurately ripped
8 | (3/3) Accurately ripped
9 | (3/3) Accurately ripped
10 | (3/3) Accurately ripped
11 | (3/3) Accurately ripped
12 | (3/3) Accurately ripped
==== Log checksum 2714B35F8C3E96CDF5EDD74B9DC37DAE8821216C66BA2CE6A46EA35C792E7697 ====

Содержание индексной карты (.CUE)

REM GENRE Jazz
REM DATE 2004
REM DISCID B30E150C
REM COMMENT "ExactAudioCopy v1.3"
PERFORMER "Ann Hampton Callaway"
TITLE "Slow"
FILE "01 - Slow.wav" WAVE
TRACK 01 AUDIO
TITLE "Slow"
PERFORMER "Ann Hampton Callaway"
INDEX 01 00:00:00
TRACK 02 AUDIO
TITLE "You Belong to Me"
PERFORMER "Ann Hampton Callaway"
INDEX 00 05:09:48
FILE "02 - You Belong to Me.wav" WAVE
INDEX 01 00:00:00
TRACK 03 AUDIO
TITLE "Will You Love Me Tomorrow?"
PERFORMER "Ann Hampton Callaway"
INDEX 00 04:26:74
FILE "03 - Will You Love Me Tomorrow.wav" WAVE
INDEX 01 00:00:00
TRACK 04 AUDIO
TITLE "Tonight You're All Mine (with Carole King)"
PERFORMER "Ann Hampton Callaway"
INDEX 00 06:51:23
FILE "04 - Tonight You're All Mine (with Carole King).wav" WAVE
INDEX 01 00:00:00
TRACK 05 AUDIO
TITLE "Someone to Light Up My Life"
PERFORMER "Ann Hampton Callaway"
INDEX 00 03:41:62
FILE "05 - Someone to Light Up My Life.wav" WAVE
INDEX 01 00:00:00
TRACK 06 AUDIO
TITLE "I've Dreamed of You"
PERFORMER "Ann Hampton Callaway"
INDEX 00 05:50:56
FILE "06 - I've Dreamed of You.wav" WAVE
INDEX 01 00:00:00
TRACK 07 AUDIO
TITLE "Lullaby in Blue"
PERFORMER "Ann Hampton Callaway"
INDEX 00 05:06:32
FILE "07 - Lullaby in Blue.wav" WAVE
INDEX 01 00:00:00
TRACK 08 AUDIO
TITLE "Moondance (with Liz Callaway)"
PERFORMER "Ann Hampton Callaway"
INDEX 00 05:13:36
FILE "08 - Moondance (with Liz Callaway).wav" WAVE
INDEX 01 00:00:00
TRACK 09 AUDIO
TITLE "Never Really Mine to Lose"
PERFORMER "Ann Hampton Callaway"
INDEX 00 03:59:37
FILE "09 - Never Really Mine to Lose.wav" WAVE
INDEX 01 00:00:00
TRACK 10 AUDIO
TITLE "Love Dance"
PERFORMER "Ann Hampton Callaway"
INDEX 00 04:17:15
FILE "10 - Love Dance.wav" WAVE
INDEX 01 00:00:00
TRACK 11 AUDIO
TITLE "Never Let Me Go"
PERFORMER "Ann Hampton Callaway"
INDEX 00 05:58:66
FILE "11 - Never Let Me Go.wav" WAVE
INDEX 01 00:00:00
TRACK 12 AUDIO
TITLE "My Answered Prayer"
PERFORMER "Ann Hampton Callaway"
INDEX 00 04:28:71
FILE "12 - My Answered Prayer.wav" WAVE
INDEX 01 00:00:00

Отчет CUETools

[CUETools log; Date: 08.06.2017 0:29:35; Version: 2.1.5]
[CTDB TOCID: hTr_jRuYQM7ir.s09PeRAwf7FlQ-] found.
Track | CTDB Status
1 | (4/4) Accurately ripped
2 | (4/4) Accurately ripped
3 | (4/4) Accurately ripped
4 | (4/4) Accurately ripped
5 | (4/4) Accurately ripped
6 | (4/4) Accurately ripped
7 | (4/4) Accurately ripped
8 | (4/4) Accurately ripped
9 | (4/4) Accurately ripped
10 | (4/4) Accurately ripped
11 | (4/4) Accurately ripped
12 | (4/4) Accurately ripped
[AccurateRip ID: 001b4c59-00fdc152-b30e150c] found.
Track [ CRC | V2 ] Status
01 [3d281bc1|0149eeb3] (07+07/14) Accurately ripped
02 [dafbf8cd|ee11a7df] (08+07/15) Accurately ripped
03 [ff016e03|27f49951] (08+07/15) Accurately ripped
04 [5d4d2c10|c7226fd2] (07+07/14) Accurately ripped
05 [9c91b56d|7915cb31] (07+07/14) Accurately ripped
06 [986082f4|1162217d] (08+07/15) Accurately ripped
07 [b91cf214|786ca40b] (07+07/14) Accurately ripped
08 [875dc910|0f90a215] (07+07/14) Accurately ripped
09 [96aa4e25|1bc5c201] (07+07/14) Accurately ripped
10 [d5e7bf48|8b28dfa8] (07+07/14) Accurately ripped
11 [cdfe24b5|a26f34db] (07+07/14) Accurately ripped
12 [d3c3dc2a|b53f33e9] (07+07/14) Accurately ripped
Track Peak [ CRC32 ] [W/O NULL] [ LOG ]
-- 99,9 [FB5EB95F] [946BA632]
01 99,9 [B3D389E9] [FDE2F14E] CRC32
02 99,9 [B4D0E442] [744FFB64] CRC32
03 99,9 [80BB0E7F] [1F12CCC9] CRC32
04 99,9 [A16B24DE] [5021AB1F] CRC32
05 99,9 [714466F0] [C3FED91C] CRC32
06 99,9 [8A70CF8A] [BDDEC17D] CRC32
07 99,9 [51FE383B] [A70F4722] CRC32
08 99,9 [58F644A8] [8BBDBBBD] CRC32
09 99,9 [301194CD] [AE892D9C] CRC32
10 99,9 [9ABB42D9] [C1359C01] CRC32
11 99,9 [B8936594] [82F5F67D] CRC32
12 99,9 [9468742E] [C24E7736] CRC32

AllMusic Review by Jonathan Widran

The sultry, sweet-molasses voiced veteran singer/songwriter has an impressive pedigree as an entertainment Renaissance woman, with a Tony nomination for Swing!, the theme song to TV's The Nanny, and some 40 CDs as a soloist and guest artist to her credit. Best of all, she lives up to her promises, most notably, the vibe she hints at in the album title. Her goal was to make a dreamy "make out" album and she succeeds, creating a lush, moody, sparsely arranged atmosphere-rich collection of sweet originals played at very slow tempos. Those arrangements are geared towards allowing her voice to stand out and ultimately caress the listener, but the drawback is that there's not a great deal of variety in rhythm and movement from track to track. Those who love the original version of Carole King's "Will You Love Me Tomorrow?" may be maddened by its languid pace (despite its shimmering beauty), but King loved it so much that she wrote the following track, the much more engaging, AC radio-accessible "Tonight You're All Mine," with Callaway co-producing and singing backup on the track. Callaway also picks up the pace to joyous effect, singing beautifully with her sister Liz (with whom she performs cabaret shows) on a lightly swinging version of "Moondance." Other familiar tracks include a thoughtful reading of Ivan Lins' "Love Dance," and "I've Dreamed of You" (Callaway's song which Barbra Streisand sang at her wedding to James Brolin and later included on three albums.)

If you like the topic, please click share to help develop our site.

To download the file disable ad blocking, and reload the page.

disable adblock How to disable ad blocking?

Download by magnet link 322 MB Download Torrent

Login using:

Similar topics



   
Current time is: 27-May 02:01 :: All times are UTC + 3