Julia Fordham - The Julia Fordham Collection
Жанр: Vocal Jazz, Smooth Jazz
Носитель: CD
Страна-производитель диска (релиза): США
Год издания: 1998
Издатель (лейбл): Circa
Номер по каталогу: 7243 8 46315 2 9
Аудиокодек: FLAC (*.flac)
Тип рипа: tracks+.cue
Битрейт аудио: lossless
Продолжительность: 67:39
Источник (релизер): Doc911
Наличие сканов в содержимом раздачи: нет
Треклист:
01. Happy Ever After (Rain Forest Mix '98) (4:44)
02. Where Does the Time Go? ('98 Version/Duet with Curtis Stigers) (4:31)
03. Manhattan Skyline (4:08)
04. Lock & Key (4:36)
05. Porcelain (5:38)
06. Girlfriend (4:39)
07. Falling Forward (5:15)
08. I Can't Help Myself (3:59)
09. I Thought It Was You ('98 Remix) (4:50)
10. East West (4:19)
11. Killing Me Slowly (5:30)
12. Kid (4:43)
13. It Was Nothing That You Said (2:26)
14. Love Moves In (Mysterious Ways) (4:37)
15. Happy Ever After (Original Mix) (3:44)

Лог создания рипа

X Lossless Decoder version 20161007 (149.3)
XLD extraction logfile from 2017-04-02 18:23:27 -0700
Julia Fordham / The Julia Fordham Collection
Used drive : HL-DT-ST DVD-RW GH41N (revision PQ06)
Media type : Pressed CD
Ripper mode : XLD Secure Ripper
Disable audio cache : OK for the drive with a cache less than 1375KiB
Make use of C2 pointers : NO
Read offset correction : 667
Max retry count : 100
Gap status : Analyzed, Appended
TOC of the extracted CD
Track | Start | Length | Start sector | End sector
---------------------------------------------------------
1 | 00:00:00 | 04:43:40 | 0 | 21264
2 | 04:43:40 | 04:30:55 | 21265 | 41569
3 | 09:14:20 | 04:07:57 | 41570 | 60151
4 | 13:22:02 | 04:36:25 | 60152 | 80876
5 | 17:58:27 | 05:38:20 | 80877 | 106246
6 | 23:36:47 | 04:39:35 | 106247 | 127206
7 | 28:16:07 | 05:14:43 | 127207 | 150799
8 | 33:30:50 | 03:59:25 | 150800 | 168749
9 | 37:30:00 | 04:50:22 | 168750 | 190521
10 | 42:20:22 | 04:19:05 | 190522 | 209951
11 | 46:39:27 | 05:29:45 | 209952 | 234671
12 | 52:08:72 | 04:43:35 | 234672 | 255931
13 | 56:52:32 | 02:26:08 | 255932 | 266889
14 | 59:18:40 | 04:37:07 | 266890 | 287671
15 | 63:55:47 | 03:43:55 | 287672 | 304451
List of alternate offset correction values
# | Absolute | Relative | Confidence
------------------------------------------
1 | 1478 | 811 | 31
AccurateRip Summary (DiscID: 002640d0-01b08667-ba0fdb0f)
Track 01 : OK (v1+v2, confidence 15/54)
Track 02 : OK (v1+v2, confidence 15/53)
Track 03 : OK (v1+v2, confidence 15/55)
Track 04 : OK (v1+v2, confidence 16/54)
Track 05 : OK (v1+v2, confidence 15/54)
Track 06 : OK (v1+v2, confidence 14/54)
Track 07 : OK (v1+v2, confidence 15/55)
Track 08 : OK (v1+v2, confidence 15/54)
Track 09 : OK (v1+v2, confidence 14/53)
Track 10 : OK (v1+v2, confidence 14/52)
Track 11 : OK (v1+v2, confidence 14/52)
Track 12 : OK (v1+v2, confidence 14/53)
Track 13 : OK (v1+v2, confidence 14/53)
Track 14 : OK (v1+v2, confidence 14/53)
Track 15 : OK (v1+v2, confidence 14/54)
->All tracks accurately ripped.
All Tracks
Album gain : -4.31 dB
Peak : 0.979767
Statistics
Read error : 0
Jitter error (maybe fixed) : 0
Retry sector count : 0
Damaged sector count : 0
Track 01
Filename : /Volumes/Main Data/Data/Downloads/uTorrent Done/Julia Fordham - The Julia Fordham Collection (1998) [FLAC]/01 Happy Ever After (Rain Forest Mix '98).flac
Pre-gap length : 00:02:00
Track gain : -0.58 dB
Peak : 0.979767
CRC32 hash (test run) : 1AC02E44
CRC32 hash : 1AC02E44
CRC32 hash (skip zero) : 3DED98F1
AccurateRip v1 signature : CA0EDC27
AccurateRip v2 signature : F855696A
->Accurately ripped (v1+v2, confidence 6+9/54)
Statistics
Read error : 0
Jitter error (maybe fixed) : 0
Retry sector count : 0
Damaged sector count : 0
Track 02
Filename : /Volumes/Main Data/Data/Downloads/uTorrent Done/Julia Fordham - The Julia Fordham Collection (1998) [FLAC]/02 Where Does The Time Go_ ('98 Version_Duet with Curtis Stigers)).flac
Track gain : -3.75 dB
Peak : 0.979736
CRC32 hash (test run) : 095A40F7
CRC32 hash : 095A40F7
CRC32 hash (skip zero) : 8DDA38BB
AccurateRip v1 signature : BC712A2E
AccurateRip v2 signature : 86C30087
->Accurately ripped (v1+v2, confidence 6+9/53)
Statistics
Read error : 0
Jitter error (maybe fixed) : 0
Retry sector count : 0
Damaged sector count : 0
Track 03
Filename : /Volumes/Main Data/Data/Downloads/uTorrent Done/Julia Fordham - The Julia Fordham Collection (1998) [FLAC]/03 Manhattan Skyline.flac
Track gain : -5.87 dB
Peak : 0.979767
CRC32 hash (test run) : 1F410DCD
CRC32 hash : 1F410DCD
CRC32 hash (skip zero) : 2BEC2782
AccurateRip v1 signature : EBE2B138
AccurateRip v2 signature : 27C98AC7
->Accurately ripped (v1+v2, confidence 6+9/55)
Statistics
Read error : 0
Jitter error (maybe fixed) : 0
Retry sector count : 0
Damaged sector count : 0
Track 04
Filename : /Volumes/Main Data/Data/Downloads/uTorrent Done/Julia Fordham - The Julia Fordham Collection (1998) [FLAC]/04 Lock & Key.flac
Track gain : -2.59 dB
Peak : 0.979736
CRC32 hash (test run) : 24C045C4
CRC32 hash : 24C045C4
CRC32 hash (skip zero) : 7EC437F8
AccurateRip v1 signature : EBF9A94C
AccurateRip v2 signature : 07770CFF
->Accurately ripped (v1+v2, confidence 6+10/54)
Statistics
Read error : 0
Jitter error (maybe fixed) : 0
Retry sector count : 0
Damaged sector count : 0
Track 05
Filename : /Volumes/Main Data/Data/Downloads/uTorrent Done/Julia Fordham - The Julia Fordham Collection (1998) [FLAC]/05 Porcelain.flac
Track gain : -4.78 dB
Peak : 0.979767
CRC32 hash (test run) : 71837F98
CRC32 hash : 71837F98
CRC32 hash (skip zero) : 8AFE40B4
AccurateRip v1 signature : 67F10E8E
AccurateRip v2 signature : AC61F8C3
->Accurately ripped (v1+v2, confidence 5+10/54)
Statistics
Read error : 0
Jitter error (maybe fixed) : 0
Retry sector count : 0
Damaged sector count : 0
Track 06
Filename : /Volumes/Main Data/Data/Downloads/uTorrent Done/Julia Fordham - The Julia Fordham Collection (1998) [FLAC]/06 Girlfriend.flac
Track gain : -2.85 dB
Peak : 0.979767
CRC32 hash (test run) : 09F9BF63
CRC32 hash : 09F9BF63
CRC32 hash (skip zero) : D74C8EFF
AccurateRip v1 signature : 5652ED1B
AccurateRip v2 signature : A435D3C3
->Accurately ripped (v1+v2, confidence 5+9/54)
Statistics
Read error : 0
Jitter error (maybe fixed) : 0
Retry sector count : 0
Damaged sector count : 0
Track 07
Filename : /Volumes/Main Data/Data/Downloads/uTorrent Done/Julia Fordham - The Julia Fordham Collection (1998) [FLAC]/07 Falling Forward.flac
Track gain : -3.87 dB
Peak : 0.979767
CRC32 hash (test run) : 0456981E
CRC32 hash : 0456981E
CRC32 hash (skip zero) : 7A522C94
AccurateRip v1 signature : 4A13AD0E
AccurateRip v2 signature : 3F03FE94
->Accurately ripped (v1+v2, confidence 6+9/55)
Statistics
Read error : 0
Jitter error (maybe fixed) : 0
Retry sector count : 0
Damaged sector count : 0
Track 08
Filename : /Volumes/Main Data/Data/Downloads/uTorrent Done/Julia Fordham - The Julia Fordham Collection (1998) [FLAC]/08 I Can't Help Myself.flac
Track gain : -3.47 dB
Peak : 0.979736
CRC32 hash (test run) : D71CEDE0
CRC32 hash : D71CEDE0
CRC32 hash (skip zero) : 440106DA
AccurateRip v1 signature : 6E159B64
AccurateRip v2 signature : 0B0B1629
->Accurately ripped (v1+v2, confidence 6+9/54)
Statistics
Read error : 0
Jitter error (maybe fixed) : 0
Retry sector count : 0
Damaged sector count : 0
Track 09
Filename : /Volumes/Main Data/Data/Downloads/uTorrent Done/Julia Fordham - The Julia Fordham Collection (1998) [FLAC]/09 I Thought It Was You ('98 Remix).flac
Pre-gap length : 00:00:30
Track gain : -5.21 dB
Peak : 0.979767
CRC32 hash (test run) : 6E7243F0
CRC32 hash : 6E7243F0
CRC32 hash (skip zero) : 1BC7CA95
AccurateRip v1 signature : BD87F627
AccurateRip v2 signature : 9A5C4677
->Accurately ripped (v1+v2, confidence 5+9/53)
Statistics
Read error : 0
Jitter error (maybe fixed) : 0
Retry sector count : 0
Damaged sector count : 0
Track 10
Filename : /Volumes/Main Data/Data/Downloads/uTorrent Done/Julia Fordham - The Julia Fordham Collection (1998) [FLAC]/10 East West.flac
Track gain : -4.84 dB
Peak : 0.979767
CRC32 hash (test run) : ECCB0FC2
CRC32 hash : ECCB0FC2
CRC32 hash (skip zero) : 9C797ECC
AccurateRip v1 signature : 2BD611F9
AccurateRip v2 signature : C0D9B390
->Accurately ripped (v1+v2, confidence 5+9/52)
Statistics
Read error : 0
Jitter error (maybe fixed) : 0
Retry sector count : 0
Damaged sector count : 0
Track 11
Filename : /Volumes/Main Data/Data/Downloads/uTorrent Done/Julia Fordham - The Julia Fordham Collection (1998) [FLAC]/11 Killing Me Slowly.flac
Track gain : -4.53 dB
Peak : 0.979736
CRC32 hash (test run) : 52A4EA2E
CRC32 hash : 52A4EA2E
CRC32 hash (skip zero) : C37CE6AB
AccurateRip v1 signature : 2FD514B0
AccurateRip v2 signature : 43878683
->Accurately ripped (v1+v2, confidence 5+9/52)
Statistics
Read error : 0
Jitter error (maybe fixed) : 0
Retry sector count : 0
Damaged sector count : 0
Track 12
Filename : /Volumes/Main Data/Data/Downloads/uTorrent Done/Julia Fordham - The Julia Fordham Collection (1998) [FLAC]/12 Kid.flac
Pre-gap length : 00:00:67
Track gain : -3.49 dB
Peak : 0.979767
CRC32 hash (test run) : 632FCC04
CRC32 hash : 632FCC04
CRC32 hash (skip zero) : 0967B963
AccurateRip v1 signature : D25B1957
AccurateRip v2 signature : C5FD9534
->Accurately ripped (v1+v2, confidence 5+9/53)
Statistics
Read error : 0
Jitter error (maybe fixed) : 0
Retry sector count : 0
Damaged sector count : 0
Track 13
Filename : /Volumes/Main Data/Data/Downloads/uTorrent Done/Julia Fordham - The Julia Fordham Collection (1998) [FLAC]/13 It Was Nothing That You Said.flac
Track gain : -3.63 dB
Peak : 0.979767
CRC32 hash (test run) : C4D38D61
CRC32 hash : C4D38D61
CRC32 hash (skip zero) : A931F51E
AccurateRip v1 signature : F3D13EE9
AccurateRip v2 signature : 5D0B20AF
->Accurately ripped (v1+v2, confidence 5+9/53)
Statistics
Read error : 0
Jitter error (maybe fixed) : 0
Retry sector count : 0
Damaged sector count : 0
Track 14
Filename : /Volumes/Main Data/Data/Downloads/uTorrent Done/Julia Fordham - The Julia Fordham Collection (1998) [FLAC]/14 Love Moves In (Mysterious Ways).flac
Pre-gap length : 00:01:23
Track gain : -3.70 dB
Peak : 0.979767
CRC32 hash (test run) : 46587394
CRC32 hash : 46587394
CRC32 hash (skip zero) : 47557506
AccurateRip v1 signature : 61304745
AccurateRip v2 signature : 3FEBFF7D
->Accurately ripped (v1+v2, confidence 5+9/53)
Statistics
Read error : 0
Jitter error (maybe fixed) : 0
Retry sector count : 0
Damaged sector count : 0
Track 15
Filename : /Volumes/Main Data/Data/Downloads/uTorrent Done/Julia Fordham - The Julia Fordham Collection (1998) [FLAC]/15 Happy Ever After (Original Mix).flac
Track gain : -1.80 dB
Peak : 0.979706
CRC32 hash (test run) : F7D7EBAA
CRC32 hash : F7D7EBAA
CRC32 hash (skip zero) : 0EBF9D7F
AccurateRip v1 signature : 4CB2E761
AccurateRip v2 signature : 35A7C3AA
->Accurately ripped (v1+v2, confidence 4+10/54)
Statistics
Read error : 0
Jitter error (maybe fixed) : 0
Retry sector count : 0
Damaged sector count : 0
No errors occurred
End of status report
-----BEGIN XLD SIGNATURE-----
62UK62lmHIXAnCt.WjxfOtqWrxL4rVo7qTi5SPdQcAFQvH7d1AuHkOGAgRcqb6W4csfeyg7uZ.jvMPtrgPbDiUHbu94h_uZaZJWYsAa
-----END XLD SIGNATURE-----

Содержание индексной карты (.CUE)

TITLE "The Julia Fordham Collection"
PERFORMER "Julia Fordham"
REM GENRE "Pop"
REM DATE "1998"
REM DISCID BA0FDB0F
REM REPLAYGAIN_ALBUM_GAIN -4.31 dB
REM REPLAYGAIN_ALBUM_PEAK 0.979767
FILE "01 - Happy Ever After (Rain Forest Mix '98).flac" WAVE
TRACK 01 AUDIO
TITLE "Happy Ever After (Rain Forest Mix '98)"
ISRC GBAAA9820251
REM REPLAYGAIN_TRACK_GAIN -0.58 dB
REM REPLAYGAIN_TRACK_PEAK 0.979767
INDEX 01 00:00:00
FILE "02 - Where Does the Time Go ('98 Version-Duet with Curtis Stigers).flac" WAVE
TRACK 02 AUDIO
TITLE "Where Does the Time Go? ('98 Version/Duet with Curtis Stigers)"
ISRC GBAAA9820252
REM REPLAYGAIN_TRACK_GAIN -3.75 dB
REM REPLAYGAIN_TRACK_PEAK 0.979736
INDEX 01 00:00:00
FILE "03 - Manhattan Skyline.flac" WAVE
TRACK 03 AUDIO
TITLE "Manhattan Skyline"
ISRC GBAAA8900018
REM REPLAYGAIN_TRACK_GAIN -5.87 dB
REM REPLAYGAIN_TRACK_PEAK 0.979767
INDEX 01 00:00:00
FILE "04 - Lock & Key.flac" WAVE
TRACK 04 AUDIO
TITLE "Lock & Key"
ISRC GBAAA8900019
REM REPLAYGAIN_TRACK_GAIN -2.59 dB
REM REPLAYGAIN_TRACK_PEAK 0.979736
INDEX 01 00:00:00
FILE "05 - Porcelain.flac" WAVE
TRACK 05 AUDIO
TITLE "Porcelain"
ISRC GBAAA8900020
REM REPLAYGAIN_TRACK_GAIN -4.78 dB
REM REPLAYGAIN_TRACK_PEAK 0.979767
INDEX 01 00:00:00
FILE "06 - Girlfriend.flac" WAVE
TRACK 06 AUDIO
TITLE "Girlfriend"
ISRC GBAAA8900017
REM REPLAYGAIN_TRACK_GAIN -2.85 dB
REM REPLAYGAIN_TRACK_PEAK 0.979767
INDEX 01 00:00:00
FILE "07 - Falling Forward.flac" WAVE
TRACK 07 AUDIO
TITLE "Falling Forward"
ISRC GBAAA9400366
REM REPLAYGAIN_TRACK_GAIN -3.87 dB
REM REPLAYGAIN_TRACK_PEAK 0.979767
INDEX 01 00:00:00
FILE "08 - I Can't Help Myself.flac" WAVE
TRACK 08 AUDIO
TITLE "I Can't Help Myself"
ISRC GBAAA9400367
REM REPLAYGAIN_TRACK_GAIN -3.47 dB
REM REPLAYGAIN_TRACK_PEAK 0.979736
INDEX 01 00:00:00
TRACK 09 AUDIO
TITLE "I Thought It Was You ('98 Remix)"
ISRC GBAAA9710343
REM REPLAYGAIN_TRACK_GAIN -5.21 dB
REM REPLAYGAIN_TRACK_PEAK 0.979767
INDEX 00 03:58:70
FILE "09 - I Thought It Was You ('98 Remix).flac" WAVE
INDEX 01 00:00:00
FILE "10 - East West.flac" WAVE
TRACK 10 AUDIO
TITLE "East West"
ISRC GBAAA9710344
REM REPLAYGAIN_TRACK_GAIN -4.84 dB
REM REPLAYGAIN_TRACK_PEAK 0.979767
INDEX 01 00:00:00
FILE "11 - Killing Me Slowly.flac" WAVE
TRACK 11 AUDIO
TITLE "Killing Me Slowly"
ISRC GBAAA9710345
REM REPLAYGAIN_TRACK_GAIN -4.53 dB
REM REPLAYGAIN_TRACK_PEAK 0.979736
INDEX 01 00:00:00
TRACK 12 AUDIO
TITLE "Kid"
ISRC GBAAA9820256
REM REPLAYGAIN_TRACK_GAIN -3.49 dB
REM REPLAYGAIN_TRACK_PEAK 0.979767
INDEX 00 05:28:53
FILE "12 - Kid.flac" WAVE
INDEX 01 00:00:00
FILE "13 - It Was Nothing That You Said.flac" WAVE
TRACK 13 AUDIO
TITLE "It Was Nothing That You Said"
ISRC GBAAA9710346
REM REPLAYGAIN_TRACK_GAIN -3.63 dB
REM REPLAYGAIN_TRACK_PEAK 0.979767
INDEX 01 00:00:00
TRACK 14 AUDIO
TITLE "Love Moves In (Mysterious Ways)"
ISRC GBAAA9200023
REM REPLAYGAIN_TRACK_GAIN -3.70 dB
REM REPLAYGAIN_TRACK_PEAK 0.979767
INDEX 00 02:24:60
FILE "14 - Love Moves In (Mysterious Ways).flac" WAVE
INDEX 01 00:00:00
FILE "15 - Happy Ever After (Original Mix).flac" WAVE
TRACK 15 AUDIO
TITLE "Happy Ever After (Original Mix)"
ISRC GBAAA8800017
REM REPLAYGAIN_TRACK_GAIN -1.80 dB
REM REPLAYGAIN_TRACK_PEAK 0.979706
INDEX 01 00:00:00

Отчет CUETools

[CUETools log; Date: 06.06.2017 21:48:11; Version: 2.1.5]
[CTDB TOCID: H5K4MHId3WcBvlIIEcbRpdlI.qo-] found.
Track | CTDB Status
1 | (23/33) Accurately ripped
2 | (25/33) Accurately ripped
3 | (25/33) Accurately ripped
4 | (22/33) Accurately ripped, or (1/33) differs in 3 samples @02:26:28
5 | (25/33) Accurately ripped
6 | (23/33) Accurately ripped
7 | (23/33) Accurately ripped, or (1/33) differs in 2 samples @04:01:16
8 | (23/33) Accurately ripped, or (1/33) differs in 11 samples @00:34:38,03:43:01
9 | (23/33) Accurately ripped, or (1/33) differs in 167 samples @03:10:51,03:38:34,04:09:68,04:21:23,04:24:19,04:24:32,04:26:41-04:26:44,04:27:39,04:29:16-04:29:17,04:30:62,04:33:56,04:36:65,04:40:31,04:40:49,04:42:62,04:45:15,04:46:52,04:46:69,04:47:29,04:47:48,04:47:63,04:48:04-04:48:08,04:48:22,04:48:50,04:48:63,04:49:38
10 | (21/33) Accurately ripped, or (1/33) differs in 103 samples @00:00:53,00:02:45,00:05:32,00:06:10,00:50:08,01:14:52,01:17:64,01:28:74,02:38:62,04:01:68,04:04:46,04:06:59,04:07:24,04:10:21,04:15:74,04:16:35,04:16:70,04:17:14,04:17:22,04:17:35-04:17:40,04:17:48
11 | (23/33) Accurately ripped, or (1/33) differs in 41 samples @01:42:46,02:17:40,02:31:73,02:33:50,05:11:22,05:19:04,05:19:38,05:27:58,05:28:02
12 | (24/33) Accurately ripped, or (1/33) differs in 50 samples @00:05:32,00:32:20,02:33:62,04:33:60,04:37:31,04:41:12-04:41:13,04:41:30-04:41:34,04:41:53
13 | (23/33) Accurately ripped, or (1/33) differs in 27 samples @02:18:74,02:19:16,02:20:03,02:20:22,02:20:65
14 | (22/33) Accurately ripped, or (1/33) differs in 77 samples @00:03:09-00:03:10,00:10:13,00:10:32,00:11:61,00:13:31,00:24:02,00:29:29,00:30:05,00:37:27,00:41:74,00:49:44,00:51:58,01:11:52,01:27:18,02:03:28
15 | (24/33) Accurately ripped, or (1/33) differs in 1785 samples @01:49:41,02:16:07,03:15:49,03:27:03-03:27:04,03:27:22,03:36:13,03:41:70-03:41:71,03:42:11,03:42:17-03:42:18,03:42:35-03:42:37,03:42:47-03:42:48,03:42:53-03:42:60,03:42:67-03:43:07,03:43:16-03:43:18
[AccurateRip ID: 002640d0-01b08667-ba0fdb0f] found.
Track [ CRC | V2 ] Status
01 [ca0edc27|f855696a] (06+09/55) Accurately ripped
02 [bc712a2e|86c30087] (06+09/54) Accurately ripped
03 [ebe2b138|27c98ac7] (06+09/56) Accurately ripped
04 [ebf9a94c|07770cff] (06+10/55) Accurately ripped
05 [67f10e8e|ac61f8c3] (05+10/55) Accurately ripped
06 [5652ed1b|a435d3c3] (05+09/55) Accurately ripped
07 [4a13ad0e|3f03fe94] (06+09/56) Accurately ripped
08 [6e159b64|0b0b1629] (06+09/55) Accurately ripped
09 [bd87f627|9a5c4677] (05+09/54) Accurately ripped
10 [2bd611f9|c0d9b390] (05+09/53) Accurately ripped
11 [2fd514b0|43878683] (05+09/53) Accurately ripped
12 [d25b1957|c5fd9534] (05+09/54) Accurately ripped
13 [f3d13ee9|5d0b20af] (05+09/54) Accurately ripped
14 [61304745|3febff7d] (05+09/54) Accurately ripped
15 [4cb2e761|35a7c3aa] (04+10/55) Accurately ripped
Offsetted by 811:
01 [cbff2598] (13/55) Accurately ripped
02 [37517e02] (13/54) Accurately ripped
03 [cb4d6489] (13/56) Accurately ripped
04 [77ba315b] (13/55) Accurately ripped
05 [bf759a9b] (13/55) Accurately ripped
06 [e7c319e3] (13/55) Accurately ripped
07 [27886e1d] (13/56) Accurately ripped
08 [000f8e07] (12/55) Accurately ripped
09 [4a3761ab] (12/54) Accurately ripped
10 [7223d9b8] (12/53) Accurately ripped
11 [a9d88062] (12/53) Accurately ripped
12 [f65f5bdf] (12/54) Accurately ripped
13 [4105f75d] (12/54) Accurately ripped
14 [56f344b3] (12/54) Accurately ripped
15 [668df039] (13/55) Accurately ripped
Offsetted by 525:
01 [5c3367de] (00/55) No match (V2 was not tested)
02 [3699957a] (00/54) No match (V2 was not tested)
03 [ce95ee0f] (00/56) No match
04 [c64dccf6] (00/55) No match
05 [fee3f1e0] (00/55) No match
06 [e841842c] (00/55) No match
07 [6d5ce4be] (00/56) No match
08 [c31cbcb9] (00/55) No match
09 [42e6e543] (00/54) No match
10 [11b14c92] (00/53) No match (V2 was not tested)
11 [cb350bce] (00/53) No match
12 [5a5c980f] (00/54) No match
13 [d2c72e95] (00/54) No match
14 [1df44407] (00/54) No match (V2 was not tested)
15 [23abb449] (00/55) No match
Track Peak [ CRC32 ] [W/O NULL]
-- 97,9 [F5F0A6A5] [3E782C88]
01 97,9 [1AC02E44] [3DED98F1]
02 97,9 [095A40F7] [8DDA38BB]
03 97,9 [1F410DCD] [2BEC2782]
04 97,9 [24C045C4] [7EC437F8]
05 97,9 [71837F98] [8AFE40B4]
06 97,9 [09F9BF63] [D74C8EFF]
07 97,9 [0456981E] [7A522C94]
08 97,9 [D71CEDE0] [440106DA]
09 97,9 [6E7243F0] [1BC7CA95]
10 97,9 [ECCB0FC2] [9C797ECC]
11 97,9 [52A4EA2E] [C37CE6AB]
12 97,9 [632FCC04] [0967B963]
13 97,9 [C4D38D61] [A931F51E]
14 97,9 [46587394] [47557506]
15 97,9 [F7D7EBAA] [0EBF9D7F]

AllMusic Review by Jaime Sunao Ikeda

Julia Fordham has rarely found a song that her voice didn't capture and own. Herein lies a best-of collection of 15 tracks, including some new versions of her classics, a remix of "I Thought It Was You," and two new tracks confirming this assertion. Although other fan favorites are missing, such as "The Comfort of Strangers" and "I Want to Call You Baby," this assemblage of quality music is very well put together. A near-classic collection from an artist in a class all her own.

If you like the topic, please click share to help develop our site.

To download the file disable ad blocking, and reload the page.

disable adblock How to disable ad blocking?

Download by magnet link 407 MB Download Torrent

Login using:

Similar topics



   
Current time is: 27-May 02:34 :: All times are UTC + 3