Julia Fordham - That's Live
Жанр: Vocal Jazz, Smooth Jazz
Носитель: CD
Страна-производитель диска (релиза): США
Год издания: 2005
Издатель (лейбл): Vanguard
Номер по каталогу: 79782-2
Аудиокодек: FLAC (*.flac)
Тип рипа: tracks+.cue
Битрейт аудио: lossless
Продолжительность: 77:49
Источник (релизер): What.CD
Наличие сканов в содержимом раздачи: нет
Треклист:
01. Falling Forward (5:01)
02. Lock and Key (4:24)
03. Girlfriend (4:55)
04. Foolish Thing (6:07)
05. Porcelain (8:07)
06. Lovin' You (2:21)
07. Roadside Angel (4:27)
08. Concrete Love (feat. India.Arie) (4:58)
09. Wake Up with You (The I Wanna Song) (5:19)
10. Jump (3:34)
11. Sugar (4:30)
12. Love (4:45)
13. Happy Ever After (4:47)
14. Stay (6:01)
15. More Than I Can Bear (4:07)
16. Manhattan Skyline (4:26)

Лог создания рипа

Exact Audio Copy V1.0 beta 3 from 29. August 2011
EAC extraction logfile from 25. March 2014, 2:35
Julia Fordham / That's Live
Used drive : PLEXTOR DVDR PX-L890SA Adapter: 0 ID: 0
Read mode : Secure
Utilize accurate stream : Yes
Defeat audio cache : Yes
Make use of C2 pointers : No
Read offset correction : 6
Overread into Lead-In and Lead-Out : No
Fill up missing offset samples with silence : Yes
Delete leading and trailing silent blocks : No
Null samples used in CRC calculations : Yes
Used interface : Native Win32 interface for Win NT & 2000
Gap handling : Appended to previous track
Used output format : User Defined Encoder
Selected bitrate : 896 kBit/s
Quality : High
Add ID3 tag : No
Command line compressor : C:\Program Files (x86)\FLAC\flac.exe
Additional command line options : -8 -V -T "ARTIST=%artist%" -T "TITLE=%title%" -T "ALBUM=%albumtitle%" -T "DATE=%year%" -T "TRACKNUMBER=%tracknr%" -T "TOTALTRACKS=%numtracks%" -T "GENRE=%genre%" -T "ALBUMARTIST=%albumartist%" -T "ALBUM ARTIST=%albumartist%" -T "COMMENT=EAC Secure Mode, Test & Copy, AccurateRip, FLAC -8" %source%
TOC of the extracted CD
Track | Start | Length | Start sector | End sector
---------------------------------------------------------
1 | 0:00.00 | 5:01.07 | 0 | 22581
2 | 5:01.07 | 4:24.30 | 22582 | 42411
3 | 9:25.37 | 4:54.38 | 42412 | 64499
4 | 14:20.00 | 6:07.35 | 64500 | 92059
5 | 20:27.35 | 8:06.52 | 92060 | 128561
6 | 28:34.12 | 2:21.03 | 128562 | 139139
7 | 30:55.15 | 4:26.40 | 139140 | 159129
8 | 35:21.55 | 4:58.27 | 159130 | 181506
9 | 40:20.07 | 5:19.28 | 181507 | 205459
10 | 45:39.35 | 3:33.70 | 205460 | 221504
11 | 49:13.30 | 4:30.32 | 221505 | 241786
12 | 53:43.62 | 4:45.13 | 241787 | 263174
13 | 58:29.00 | 4:46.42 | 263175 | 284666
14 | 63:15.42 | 6:00.45 | 284667 | 311711
15 | 69:16.12 | 4:06.50 | 311712 | 330211
16 | 73:22.62 | 4:25.73 | 330212 | 350159
Track 1
Filename E:\PT\Julia Fordham - That's Live(2005)[flac]\01 - Falling Forward.wav
Pre-gap length 0:00:02.00
Peak level 99.7 %
Extraction speed 3.3 X
Track quality 99.9 %
Test CRC D0135963
Copy CRC D0135963
Accurately ripped (confidence 4) [553ABDE1] (AR v2)
Copy OK
Track 2
Filename E:\PT\Julia Fordham - That's Live(2005)[flac]\02 - Lock and Key.wav
Peak level 99.8 %
Extraction speed 4.3 X
Track quality 100.0 %
Test CRC 38978559
Copy CRC 38978559
Accurately ripped (confidence 4) [2AB11C27] (AR v2)
Copy OK
Track 3
Filename E:\PT\Julia Fordham - That's Live(2005)[flac]\03 - Girlfriend.wav
Pre-gap length 0:00:00.52
Peak level 96.0 %
Extraction speed 4.7 X
Track quality 100.0 %
Test CRC 22291FFF
Copy CRC 22291FFF
Accurately ripped (confidence 4) [C387F163] (AR v2)
Copy OK
Track 4
Filename E:\PT\Julia Fordham - That's Live(2005)[flac]\04 - Foolish Thing.wav
Peak level 99.8 %
Extraction speed 5.2 X
Track quality 100.0 %
Test CRC 6E6BF378
Copy CRC 6E6BF378
Accurately ripped (confidence 4) [39AE7954] (AR v2)
Copy OK
Track 5
Filename E:\PT\Julia Fordham - That's Live(2005)[flac]\05 - Porcelain.wav
Peak level 99.7 %
Extraction speed 5.1 X
Track quality 99.9 %
Test CRC 2ADC18F8
Copy CRC 2ADC18F8
Accurately ripped (confidence 4) [3094948F] (AR v2)
Copy OK
Track 6
Filename E:\PT\Julia Fordham - That's Live(2005)[flac]\06 - Lovin' You.wav
Pre-gap length 0:00:00.60
Peak level 71.0 %
Extraction speed 5.1 X
Track quality 100.0 %
Test CRC 7B754B9F
Copy CRC 7B754B9F
Accurately ripped (confidence 4) [2805E0A6] (AR v2)
Copy OK
Track 7
Filename E:\PT\Julia Fordham - That's Live(2005)[flac]\07 - Roadside Angel.wav
Pre-gap length 0:00:00.33
Peak level 99.8 %
Extraction speed 5.9 X
Track quality 100.0 %
Test CRC C0A28656
Copy CRC C0A28656
Accurately ripped (confidence 4) [BE155069] (AR v2)
Copy OK
Track 8
Filename E:\PT\Julia Fordham - That's Live(2005)[flac]\08 - Concrete Love.wav
Pre-gap length 0:00:01.05
Peak level 99.8 %
Extraction speed 6.3 X
Track quality 100.0 %
Test CRC 25E61C97
Copy CRC 25E61C97
Accurately ripped (confidence 4) [F784D0CF] (AR v2)
Copy OK
Track 9
Filename E:\PT\Julia Fordham - That's Live(2005)[flac]\09 - Wake Up With You (The I Wanna Song).wav
Pre-gap length 0:00:01.07
Peak level 99.8 %
Extraction speed 5.4 X
Track quality 99.9 %
Test CRC F4E71177
Copy CRC F4E71177
Accurately ripped (confidence 4) [5974A483] (AR v2)
Copy OK
Track 10
Filename E:\PT\Julia Fordham - That's Live(2005)[flac]\10 - Jump.wav
Pre-gap length 0:00:00.63
Peak level 97.5 %
Extraction speed 6.5 X
Track quality 100.0 %
Test CRC C4FE66D6
Copy CRC C4FE66D6
Accurately ripped (confidence 4) [B6D899DA] (AR v2)
Copy OK
Track 11
Filename E:\PT\Julia Fordham - That's Live(2005)[flac]\11 - Sugar.wav
Pre-gap length 0:00:00.23
Peak level 99.2 %
Extraction speed 6.7 X
Track quality 100.0 %
Test CRC E5068808
Copy CRC E5068808
Accurately ripped (confidence 4) [543352B5] (AR v2)
Copy OK
Track 12
Filename E:\PT\Julia Fordham - That's Live(2005)[flac]\12 - Love.wav
Pre-gap length 0:00:01.17
Peak level 97.5 %
Extraction speed 6.4 X
Track quality 99.9 %
Test CRC B5033602
Copy CRC B5033602
Accurately ripped (confidence 4) [EF6ECE1D] (AR v2)
Copy OK
Track 13
Filename E:\PT\Julia Fordham - That's Live(2005)[flac]\13 - Happy Ever After.wav
Pre-gap length 0:00:00.48
Peak level 92.0 %
Extraction speed 7.1 X
Track quality 100.0 %
Test CRC 7A4208A0
Copy CRC 7A4208A0
Accurately ripped (confidence 4) [808627BA] (AR v2)
Copy OK
Track 14
Filename E:\PT\Julia Fordham - That's Live(2005)[flac]\14 - Stay.wav
Peak level 99.7 %
Extraction speed 7.7 X
Track quality 100.0 %
Test CRC 4F6DD526
Copy CRC 4F6DD526
Accurately ripped (confidence 4) [5AE6CA56] (AR v2)
Copy OK
Track 15
Filename E:\PT\Julia Fordham - That's Live(2005)[flac]\15 - More Than I Can Bear.wav
Pre-gap length 0:00:01.17
Peak level 96.7 %
Extraction speed 6.0 X
Track quality 99.9 %
Test CRC 8694916C
Copy CRC 8694916C
Accurately ripped (confidence 4) [E85204DE] (AR v2)
Copy OK
Track 16
Filename E:\PT\Julia Fordham - That's Live(2005)[flac]\16 - Manhattan Skyline.wav
Pre-gap length 0:00:00.60
Peak level 99.7 %
Extraction speed 6.4 X
Track quality 99.9 %
Test CRC 23584773
Copy CRC 23584773
Accurately ripped (confidence 3) [5E0A5D57] (AR v2)
Copy OK
All tracks accurately ripped
No errors occurred
End of status report
---- CUETools DB Plugin V2.1.5
[CTDB TOCID: 3FRQQfK_y2muM1pVhTPDqglhPSg-] found
Submit result:
Track | CTDB Status
1 | (3/3) Accurately ripped
2 | (3/3) Accurately ripped
3 | (3/3) Accurately ripped
4 | (3/3) Accurately ripped
5 | (3/3) Accurately ripped
6 | (3/3) Accurately ripped
7 | (3/3) Accurately ripped
8 | (3/3) Accurately ripped
9 | (3/3) Accurately ripped
10 | (3/3) Accurately ripped
11 | (3/3) Accurately ripped
12 | (3/3) Accurately ripped
13 | (3/3) Accurately ripped
14 | (3/3) Accurately ripped
15 | (3/3) Accurately ripped
16 | (3/3) Accurately ripped
==== Log checksum C1DA609D1919E41E3D4B14B468A5E1C5FE130142C24A0AACA869A6AD1AC28F93 ====

Содержание индексной карты (.CUE)

REM GENRE Pop
REM DATE 2005
REM DISCID DF123C10
REM COMMENT "ExactAudioCopy v1.0b3"
PERFORMER "Julia Fordham"
TITLE "That's Live"
FILE "01 - Falling Forward.wav" WAVE
TRACK 01 AUDIO
TITLE "Falling Forward"
PERFORMER "Julia Fordham"
INDEX 01 00:00:00
FILE "02 - Lock and Key.wav" WAVE
TRACK 02 AUDIO
TITLE "Lock and Key"
PERFORMER "Julia Fordham"
INDEX 01 00:00:00
TRACK 03 AUDIO
TITLE "Girlfriend"
PERFORMER "Julia Fordham"
INDEX 00 04:23:53
FILE "03 - Girlfriend.wav" WAVE
INDEX 01 00:00:00
FILE "04 - Foolish Thing.wav" WAVE
TRACK 04 AUDIO
TITLE "Foolish Thing"
PERFORMER "Julia Fordham"
INDEX 01 00:00:00
FILE "05 - Porcelain.wav" WAVE
TRACK 05 AUDIO
TITLE "Porcelain"
PERFORMER "Julia Fordham"
INDEX 01 00:00:00
TRACK 06 AUDIO
TITLE "Lovin' You"
PERFORMER "Julia Fordham"
INDEX 00 08:05:67
FILE "06 - Lovin' You.wav" WAVE
INDEX 01 00:00:00
TRACK 07 AUDIO
TITLE "Roadside Angel"
PERFORMER "Julia Fordham"
INDEX 00 02:20:45
FILE "07 - Roadside Angel.wav" WAVE
INDEX 01 00:00:00
TRACK 08 AUDIO
TITLE "Concrete Love (feat. India.Arie)"
PERFORMER "Julia Fordham"
INDEX 00 04:25:35
FILE "08 - Concrete Love (feat. India.Arie).wav" WAVE
INDEX 01 00:00:00
TRACK 09 AUDIO
TITLE "Wake Up with You (The I Wanna Song)"
PERFORMER "Julia Fordham"
INDEX 00 04:57:20
FILE "09 - Wake Up with You (The I Wanna Song).wav" WAVE
INDEX 01 00:00:00
TRACK 10 AUDIO
TITLE "Jump"
PERFORMER "Julia Fordham"
INDEX 00 05:18:40
FILE "10 - Jump.wav" WAVE
INDEX 01 00:00:00
TRACK 11 AUDIO
TITLE "Sugar"
PERFORMER "Julia Fordham"
INDEX 00 03:33:47
FILE "11 - Sugar.wav" WAVE
INDEX 01 00:00:00
TRACK 12 AUDIO
TITLE "Love"
PERFORMER "Julia Fordham"
INDEX 00 04:29:15
FILE "12 - Love.wav" WAVE
INDEX 01 00:00:00
TRACK 13 AUDIO
TITLE "Happy Ever After"
PERFORMER "Julia Fordham"
INDEX 00 04:44:40
FILE "13 - Happy Ever After.wav" WAVE
INDEX 01 00:00:00
FILE "14 - Stay.wav" WAVE
TRACK 14 AUDIO
TITLE "Stay"
PERFORMER "Julia Fordham"
INDEX 01 00:00:00
TRACK 15 AUDIO
TITLE "More Than I Can Bear"
PERFORMER "Julia Fordham"
INDEX 00 05:59:28
FILE "15 - More Than I Can Bear.wav" WAVE
INDEX 01 00:00:00
TRACK 16 AUDIO
TITLE "Manhattan Skyline"
PERFORMER "Julia Fordham"
INDEX 00 04:05:65
FILE "16 - Manhattan Skyline.wav" WAVE
INDEX 01 00:00:00

Отчет CUETools

[CUETools log; Date: 06.06.2017 21:34:45; Version: 2.1.5]
[CTDB TOCID: 3FRQQfK_y2muM1pVhTPDqglhPSg-] found.
Track | CTDB Status
1 | (11/11) Accurately ripped
2 | (11/11) Accurately ripped
3 | (11/11) Accurately ripped
4 | (11/11) Accurately ripped
5 | (11/11) Accurately ripped
6 | (11/11) Accurately ripped
7 | (11/11) Accurately ripped
8 | (11/11) Accurately ripped
9 | (10/11) Accurately ripped
10 | (11/11) Accurately ripped
11 | (11/11) Accurately ripped
12 | (11/11) Accurately ripped
13 | (11/11) Accurately ripped
14 | (11/11) Accurately ripped
15 | (11/11) Accurately ripped
16 | (11/11) Accurately ripped
[AccurateRip ID: 002e5d6b-02292fdc-df123c10] found.
Track [ CRC | V2 ] Status
01 [70ba2cc5|553abde1] (02+09/11) Accurately ripped
02 [8a91ea79|2ab11c27] (02+09/11) Accurately ripped
03 [ad8b50cd|c387f163] (02+09/11) Accurately ripped
04 [60154ec8|39ae7954] (02+09/11) Accurately ripped
05 [26589eea|3094948f] (02+09/11) Accurately ripped
06 [21197ec0|2805e0a6] (02+09/11) Accurately ripped
07 [020333b8|be155069] (02+09/11) Accurately ripped
08 [b2abde9f|f784d0cf] (02+09/11) Accurately ripped
09 [30a5d005|5974a483] (02+08/10) Accurately ripped
10 [7486d7ec|b6d899da] (02+09/11) Accurately ripped
11 [c224d056|543352b5] (02+09/11) Accurately ripped
12 [6dd157b4|ef6ece1d] (02+09/11) Accurately ripped
13 [00381706|808627ba] (02+09/11) Accurately ripped
14 [fcad21c5|5ae6ca56] (02+09/11) Accurately ripped
15 [be08645e|e85204de] (02+09/11) Accurately ripped
16 [858e3f9d|5e0a5d57] (02+08/10) Accurately ripped
Track Peak [ CRC32 ] [W/O NULL] [ LOG ]
-- 99,8 [ABABD670] [1337253C]
01 99,7 [D0135963] [EE09EF86] CRC32
02 99,8 [38978559] [E9D65200] CRC32
03 96,0 [22291FFF] [B2F21A23] CRC32
04 99,8 [6E6BF378] [67A8C7BA] CRC32
05 99,7 [2ADC18F8] [6AD7D51F] CRC32
06 71,0 [7B754B9F] [AC77264E] CRC32
07 99,8 [C0A28656] [858355CD] CRC32
08 99,8 [25E61C97] [0AC62A02] CRC32
09 99,8 [F4E71177] [DA0832EC] CRC32
10 97,5 [C4FE66D6] [B67FC6C3] CRC32
11 99,2 [E5068808] [E3A360C3] CRC32
12 97,5 [B5033602] [17F6AAB5] CRC32
13 92,0 [7A4208A0] [A1E82E38] CRC32
14 99,7 [4F6DD526] [4747B0E4] CRC32
15 96,7 [8694916C] [8871041E] CRC32
16 99,7 [23584773] [80AD5DCE] CRC32

If you like the topic, please click share to help develop our site.

To download the file disable ad blocking, and reload the page.

disable adblock How to disable ad blocking?

Download by magnet link 520 MB Download Torrent

Login using:

Similar topics



   
Current time is: 19-Jul 13:53 :: All times are UTC + 3