Julia Fordham - That's Life
Жанр: Vocal Jazz, Smooth Jazz
Носитель: CD
Страна-производитель диска (релиза): США
Год издания: 2002
Издатель (лейбл): Vanguard
Номер по каталогу: 79755-2
Аудиокодек: FLAC (*.flac)
Тип рипа: tracks+.cue
Битрейт аудио: lossless
Продолжительность: 41:18
Источник (релизер): What.CD
Наличие сканов в содержимом раздачи: нет
Треклист:
01. Sugar (4:35)
02. Jacob's Ladder (4:27)
03. Perfect Me (3:56)
04. Jump (3:30)
05. Downhill Sunday (4:21)
06. Walking on the Water (3:59)
07. Connecting (3:54)
08. That's Life (4:31)
09. I'm Sorry But... (3:25)
10. Guilty (4:40)

Лог создания рипа

Exact Audio Copy V1.0 beta 3 from 29. August 2011
EAC extraction logfile from 27. June 2014, 3:14
Julia Fordham / That's Life
Used drive : PLEXTOR DVDR PX-L890SA Adapter: 2 ID: 0
Read mode : Secure
Utilize accurate stream : Yes
Defeat audio cache : Yes
Make use of C2 pointers : No
Read offset correction : 6
Overread into Lead-In and Lead-Out : No
Fill up missing offset samples with silence : Yes
Delete leading and trailing silent blocks : No
Null samples used in CRC calculations : Yes
Used interface : Native Win32 interface for Win NT & 2000
Gap handling : Appended to previous track
Used output format : User Defined Encoder
Selected bitrate : 896 kBit/s
Quality : High
Add ID3 tag : No
Command line compressor : C:\Program Files (x86)\FLAC Frontend\tools\flac.exe
Additional command line options : -8 -V -T "ARTIST=%artist%" -T "TITLE=%title%" -T "ALBUM=%albumtitle%" -T "DATE=%year%" -T "TRACKNUMBER=%tracknr%" -T "TOTALTRACKS=%numtracks%" -T "GENRE=%genre%" -T "ALBUMARTIST=%albumartist%" -T "ALBUM ARTIST=%albumartist%" -T "COMMENT=EAC Secure Mode, Test & Copy, AccurateRip, FLAC -8" %source%
TOC of the extracted CD
Track | Start | Length | Start sector | End sector
---------------------------------------------------------
1 | 0:00.00 | 4:34.70 | 0 | 20619
2 | 4:34.70 | 4:26.60 | 20620 | 40629
3 | 9:01.55 | 3:55.66 | 40630 | 58320
4 | 12:57.46 | 3:29.43 | 58321 | 74038
5 | 16:27.14 | 4:20.74 | 74039 | 93612
6 | 20:48.13 | 3:59.30 | 93613 | 111567
7 | 24:47.43 | 3:53.65 | 111568 | 129107
8 | 28:41.33 | 4:30.52 | 129108 | 149409
9 | 33:12.10 | 3:25.18 | 149410 | 164802
10 | 36:37.28 | 4:39.74 | 164803 | 185801
Track 1
Filename E:\PT\Julia Fordham - That's Life(2004)[flac]\01 - Sugar.wav
Pre-gap length 0:00:02.00
Peak level 98.8 %
Extraction speed 3.9 X
Track quality 100.0 %
Test CRC AED69298
Copy CRC AED69298
Accurately ripped (confidence 14) [77DF2CCE] (AR v2)
Copy OK
Track 2
Filename E:\PT\Julia Fordham - That's Life(2004)[flac]\02 - Jacob's Ladder.wav
Peak level 98.8 %
Extraction speed 4.3 X
Track quality 100.0 %
Test CRC 57C2CA0C
Copy CRC 57C2CA0C
Accurately ripped (confidence 13) [1ACA9EFC] (AR v2)
Copy OK
Track 3
Filename E:\PT\Julia Fordham - That's Life(2004)[flac]\03 - Perfect Me.wav
Peak level 98.8 %
Extraction speed 4.5 X
Track quality 100.0 %
Test CRC 6E112FDB
Copy CRC 6E112FDB
Accurately ripped (confidence 12) [81CE2E42] (AR v2)
Copy OK
Track 4
Filename E:\PT\Julia Fordham - That's Life(2004)[flac]\04 - Jump.wav
Peak level 98.8 %
Extraction speed 4.7 X
Track quality 100.0 %
Test CRC DD484922
Copy CRC DD484922
Accurately ripped (confidence 12) [BD66FFA5] (AR v2)
Copy OK
Track 5
Filename E:\PT\Julia Fordham - That's Life(2004)[flac]\05 - Downhill Sunday.wav
Peak level 98.8 %
Extraction speed 5.1 X
Track quality 100.0 %
Test CRC 256E7D65
Copy CRC 256E7D65
Accurately ripped (confidence 12) [789B6EEF] (AR v2)
Copy OK
Track 6
Filename E:\PT\Julia Fordham - That's Life(2004)[flac]\06 - Walking On The Water.wav
Peak level 98.8 %
Extraction speed 4.2 X
Track quality 99.9 %
Test CRC 8487B7FD
Copy CRC 8487B7FD
Accurately ripped (confidence 12) [AFCC882C] (AR v2)
Copy OK
Track 7
Filename E:\PT\Julia Fordham - That's Life(2004)[flac]\07 - Connecting.wav
Peak level 98.8 %
Extraction speed 5.5 X
Track quality 100.0 %
Test CRC 6360B013
Copy CRC 6360B013
Accurately ripped (confidence 13) [EA082D82] (AR v2)
Copy OK
Track 8
Filename E:\PT\Julia Fordham - That's Life(2004)[flac]\08 - That's Life.wav
Peak level 98.8 %
Extraction speed 5.9 X
Track quality 100.0 %
Test CRC 1759FE60
Copy CRC 1759FE60
Accurately ripped (confidence 13) [0622E604] (AR v2)
Copy OK
Track 9
Filename E:\PT\Julia Fordham - That's Life(2004)[flac]\09 - I'm Sorry But....wav
Peak level 98.8 %
Extraction speed 5.9 X
Track quality 100.0 %
Test CRC 931E4EC6
Copy CRC 931E4EC6
Accurately ripped (confidence 13) [99333A5E] (AR v2)
Copy OK
Track 10
Filename E:\PT\Julia Fordham - That's Life(2004)[flac]\10 - Guilty.wav
Peak level 92.7 %
Extraction speed 6.3 X
Track quality 100.0 %
Test CRC B196ADC1
Copy CRC B196ADC1
Accurately ripped (confidence 13) [9FD4AFA8] (AR v2)
Copy OK
All tracks accurately ripped
No errors occurred
End of status report
---- CUETools DB Plugin V2.1.5
[CTDB TOCID: 7SY9PO2pFRTAErgdwELRv7FIX48-] found
Submit result: 7SY9PO2pFRTAErgdwELRv7FIX48- has been confirmed
Track | CTDB Status
1 | (4/4) Accurately ripped
2 | (4/4) Accurately ripped
3 | (4/4) Accurately ripped
4 | (4/4) Accurately ripped
5 | (4/4) Accurately ripped
6 | (4/4) Accurately ripped
7 | (4/4) Accurately ripped
8 | (4/4) Accurately ripped
9 | (4/4) Accurately ripped
10 | (4/4) Accurately ripped
==== Log checksum 8D18022D6B670DB9A8CD84482E198E3DC7F59975E192EF055DB120E4CA3D6B92 ====

Содержание индексной карты (.CUE)

REM GENRE Pop
REM DATE 2004
REM DISCID A509AD0A
REM COMMENT "ExactAudioCopy v1.0b3"
PERFORMER "Julia Fordham"
TITLE "That's Life"
FILE "01 - Sugar.wav" WAVE
TRACK 01 AUDIO
TITLE "Sugar"
PERFORMER "Julia Fordham"
INDEX 01 00:00:00
FILE "02 - Jacob's Ladder.wav" WAVE
TRACK 02 AUDIO
TITLE "Jacob's Ladder"
PERFORMER "Julia Fordham"
INDEX 01 00:00:00
FILE "03 - Perfect Me.wav" WAVE
TRACK 03 AUDIO
TITLE "Perfect Me"
PERFORMER "Julia Fordham"
INDEX 01 00:00:00
FILE "04 - Jump.wav" WAVE
TRACK 04 AUDIO
TITLE "Jump"
PERFORMER "Julia Fordham"
INDEX 01 00:00:00
FILE "05 - Downhill Sunday.wav" WAVE
TRACK 05 AUDIO
TITLE "Downhill Sunday"
PERFORMER "Julia Fordham"
INDEX 01 00:00:00
FILE "06 - Walking on the Water.wav" WAVE
TRACK 06 AUDIO
TITLE "Walking on the Water"
PERFORMER "Julia Fordham"
INDEX 01 00:00:00
FILE "07 - Connecting.wav" WAVE
TRACK 07 AUDIO
TITLE "Connecting"
PERFORMER "Julia Fordham"
INDEX 01 00:00:00
FILE "08 - That's Life.wav" WAVE
TRACK 08 AUDIO
TITLE "That's Life"
PERFORMER "Julia Fordham"
INDEX 01 00:00:00
FILE "09 - I'm Sorry But....wav" WAVE
TRACK 09 AUDIO
TITLE "I'm Sorry But..."
PERFORMER "Julia Fordham"
INDEX 01 00:00:00
FILE "10 - Guilty.wav" WAVE
TRACK 10 AUDIO
TITLE "Guilty"
PERFORMER "Julia Fordham"
INDEX 01 00:00:00

Отчет CUETools

[CUETools log; Date: 06.06.2017 21:11:05; Version: 2.1.5]
[CTDB TOCID: 7SY9PO2pFRTAErgdwELRv7FIX48-] found.
Track | CTDB Status
1 | (16/16) Accurately ripped
2 | (16/16) Accurately ripped
3 | (16/16) Accurately ripped
4 | (16/16) Accurately ripped
5 | (16/16) Accurately ripped
6 | (16/16) Accurately ripped
7 | (16/16) Accurately ripped
8 | (16/16) Accurately ripped
9 | (16/16) Accurately ripped
10 | (15/16) Accurately ripped
[AccurateRip ID: 000faf4a-007ccbee-a509ad0a] found.
Track [ CRC | V2 ] Status
01 [73104f87|77df2cce] (09+20/31) Accurately ripped
02 [0aa8d29f|1aca9efc] (09+19/30) Accurately ripped
03 [85febe09|81ce2e42] (09+18/29) Accurately ripped
04 [7423aae4|bd66ffa5] (09+18/29) Accurately ripped
05 [fed76198|789b6eef] (09+18/29) Accurately ripped
06 [61c97ac5|afcc882c] (09+18/29) Accurately ripped
07 [6aa6baa2|ea082d82] (09+19/30) Accurately ripped
08 [9f973848|0622e604] (09+19/30) Accurately ripped
09 [673b35bc|99333a5e] (10+19/31) Accurately ripped
10 [2c48ecc6|9fd4afa8] (10+19/31) Accurately ripped
Offsetted by -646:
01 [58f3faf5] (00/31) No match (V2 was not tested)
02 [df265af6] (00/30) No match (V2 was not tested)
03 [978185c8] (00/29) No match (V2 was not tested)
04 [6212ad70] (00/29) No match (V2 was not tested)
05 [2b614a85] (00/29) No match (V2 was not tested)
06 [5a5bc9ff] (00/29) No match (V2 was not tested)
07 [be909f47] (00/30) No match (V2 was not tested)
08 [1085f8fb] (00/30) No match (V2 was not tested)
09 [0505f567] (00/31) No match (V2 was not tested)
10 [50ba9cc4] (00/31) No match (V2 was not tested)
Track Peak [ CRC32 ] [W/O NULL] [ LOG ]
-- 98,8 [FD255720] [E1E9C965]
01 98,8 [AED69298] [C367D463] CRC32
02 98,8 [57C2CA0C] [21D54F9D] CRC32
03 98,8 [6E112FDB] [C6F632EF] CRC32
04 98,8 [DD484922] [A0CDB0A4] CRC32
05 98,8 [256E7D65] [26083775] CRC32
06 98,8 [8487B7FD] [2718A8C1] CRC32
07 98,8 [6360B013] [DAE0550C] CRC32
08 98,8 [1759FE60] [90F990F2] CRC32
09 98,8 [931E4EC6] [B499CF04] CRC32
10 92,7 [B196ADC1] [DB392D9C] CRC32

AllMusic Review by Thom Jurek

Concrete Love, issued in 2002 for Vanguard, was a watermark for singer/songwriter Julia Fordham. Full of elegance and texture, the album paired her with producer Larry Klein. They had worked together once before on 1989's Porcelain. Concrete Love once more showcased the juxtaposition of Klein's graceful subtlety and Fordham's poignancy. The duo returns on That's Life, and it's a worthy successor to Concrete Love. Fordham's songs are always sharp and cutting in their honesty, but they are never sophomoric. Here, with collaborators including Billy Preston, Dean Parks, Greg Leisz, Jamie Muhoberac, David Ricketts, Vinnie Colaiuta, Joey Waronker, and others (in addition to Klein himself), Fordham takes a tough, square look at the phases and stages of life and love; her songs gaze into the murky depths of a person engulfed in observing the tender, edgy web of everyday life in the interior. Her protagonists encounter desire, vulnerability, ambivalence, passion, willingness, fear, and frustration, and express a quiet gratitude for the ability to experience these things. She goes for the ambiguous, little-noticed shadows in the corners of the human heart that inform our choices to trust, to love, to surrender, and to change -- without flinching. Her melodies are accessible but never easy. They never take the easy way out and underscore her throaty clear voice, which enunciates longing honestly, with reportorial observation, honesty, and even wisdom -- all of which contain an ache at their core. "Sugar" opens the album with a sleepy, funky backbeat; it underscores the protagonist's awakening to possibility. With Parks' guitar chunking behind Preston's B-3 and a punchy backing chorus, the tune is drenched in a seductive groove. On "Jacob's Ladder," Fordham uses a biblical metaphor to soulfully express a deep desire for transcendence. The jazzy bass and snare groove is accented with a Rhodes piano and the B-3. The bewilderment and desolation in "Downhill Sunday" are brought home by a lilting acoustic piano and given weight by Leisz's pedal steel. The shimmering soul in "Walking on the Water" expresses the steadfastness of love with a warm, bubbly organ and horn section groove highlighted by a steamy backing chorus. And the title track, with its nocturnal reflection on love's loss and the loneliness in its aftermath, is sad to be sure, but it is given dimension by the acceptance of these things for what they are. The strummed acoustic guitars, loose and rolling bass, and drum lines that allow Fordham to express the stark pain that has to be lived through are breathtaking. In other words, on That's Life, music and lyrics fit together seamlessly, offering listeners a complex pop music that engages in life's labyrinth with depth and dimension, and finds beauty in its wounds and blessings.

If you like the topic, please click share to help develop our site.

To download the file disable ad blocking, and reload the page.

disable adblock How to disable ad blocking?

Download by magnet link 256 MB Download Torrent

Login using:

Similar topics



   
Current time is: 21-Jul 15:40 :: All times are UTC + 3