Julia Fordham - Concrete Love
Жанр: Vocal Jazz, Smooth Jazz
Носитель: CD
Страна-производитель диска (релиза): США
Год издания: 2002
Издатель (лейбл): Vanguard
Номер по каталогу: 79719-2
Аудиокодек: FLAC (*.flac)
Тип рипа: tracks+.cue
Битрейт аудио: lossless
Продолжительность: 49:03
Источник (релизер): What.CD
Наличие сканов в содержимом раздачи: нет
Треклист:
01. Love (4:32)
02. Italy (3:41)
03. Wake Up with You (The I Wanna Song) (4:30)
04. Concrete Love (feat. India.Arie) (4:02)
05. Missing Man (4:35)
06. Foolish Thing (5:04)
07. Butterfly (4:04)
08. It's Another You Day (3:33)
09. Something Right (3:19)
10. Roadside Angel (4:09)
11. Alleluia (feat. Joe Henry) (7:34)

Лог создания рипа

Exact Audio Copy V0.99 prebeta 5 from 4. May 2009
EAC extraction logfile from 13. May 2010, 20:29
Julia Fordham / Concrete Love
Used drive : LITE-ON DVDRW SOHW-812S Adapter: 0 ID: 1
Read mode : Secure
Utilize accurate stream : Yes
Defeat audio cache : Yes
Make use of C2 pointers : No
Read offset correction : 12
Overread into Lead-In and Lead-Out : No
Fill up missing offset samples with silence : Yes
Delete leading and trailing silent blocks : No
Null samples used in CRC calculations : Yes
Used interface : Native Win32 interface for Win NT & 2000
Gap handling : Appended to previous track
Used output format : User Defined Encoder
Selected bitrate : 320 kBit/s
Quality : High
Add ID3 tag : No
Command line compressor : C:\Program Files\FLAC\flac.exe
Additional command line options : -V -8 -T "artist=%a" -T "title=%t" -T "album=%g" -T "date=%y" -T "tracknumber=%n" -T "genre=%m" %s
TOC of the extracted CD
Track | Start | Length | Start sector | End sector
---------------------------------------------------------
1 | 0:00.00 | 4:32.35 | 0 | 20434
2 | 4:32.35 | 3:41.37 | 20435 | 37046
3 | 8:13.72 | 4:29.50 | 37047 | 57271
4 | 12:43.47 | 4:02.05 | 57272 | 75426
5 | 16:45.52 | 4:34.63 | 75427 | 96039
6 | 21:20.40 | 5:03.40 | 96040 | 118804
7 | 26:24.05 | 4:04.10 | 118805 | 137114
8 | 30:28.15 | 3:33.27 | 137115 | 153116
9 | 34:01.42 | 3:18.53 | 153117 | 168019
10 | 37:20.20 | 4:08.52 | 168020 | 186671
11 | 41:28.72 | 7:33.48 | 186672 | 220694
Track 1
Filename J:\EAC Extractions\Julia Fordham - Concrete Love (2002) [FLAC]\01 - Love.wav
Pre-gap length 0:00:02.00
Peak level 100.0 %
Track quality 100.0 %
Test CRC 6CBB7B25
Copy CRC 6CBB7B25
Accurately ripped (confidence 11) [016FB88A]
Copy OK
Track 2
Filename J:\EAC Extractions\Julia Fordham - Concrete Love (2002) [FLAC]\02 - Italy.wav
Peak level 100.0 %
Track quality 99.9 %
Test CRC 7E05EC1B
Copy CRC 7E05EC1B
Accurately ripped (confidence 11) [7635D9E0]
Copy OK
Track 3
Filename J:\EAC Extractions\Julia Fordham - Concrete Love (2002) [FLAC]\03 - Wake Up with You (The I Wanna Song).wav
Peak level 100.0 %
Track quality 100.0 %
Test CRC 45AF86D9
Copy CRC 45AF86D9
Accurately ripped (confidence 11) [2BBE1CEB]
Copy OK
Track 4
Filename J:\EAC Extractions\Julia Fordham - Concrete Love (2002) [FLAC]\04 - Concrete Love (Featuring India Arie).wav
Peak level 98.8 %
Track quality 99.9 %
Test CRC 33429037
Copy CRC 33429037
Accurately ripped (confidence 11) [8AA18AD1]
Copy OK
Track 5
Filename J:\EAC Extractions\Julia Fordham - Concrete Love (2002) [FLAC]\05 - Missing Man.wav
Peak level 100.0 %
Track quality 100.0 %
Test CRC 6993488F
Copy CRC 6993488F
Accurately ripped (confidence 11) [DDD668ED]
Copy OK
Track 6
Filename J:\EAC Extractions\Julia Fordham - Concrete Love (2002) [FLAC]\06 - Foolish Thing.wav
Peak level 100.0 %
Track quality 100.0 %
Test CRC CA2D6460
Copy CRC CA2D6460
Accurately ripped (confidence 11) [0BDF920D]
Copy OK
Track 7
Filename J:\EAC Extractions\Julia Fordham - Concrete Love (2002) [FLAC]\07 - Butterfly.wav
Peak level 100.0 %
Track quality 100.0 %
Test CRC CCF44C17
Copy CRC CCF44C17
Accurately ripped (confidence 11) [34109343]
Copy OK
Track 8
Filename J:\EAC Extractions\Julia Fordham - Concrete Love (2002) [FLAC]\08 - It's Another You Day.wav
Peak level 100.0 %
Track quality 100.0 %
Test CRC 28F0B91F
Copy CRC 28F0B91F
Accurately ripped (confidence 11) [83F3B1C3]
Copy OK
Track 9
Filename J:\EAC Extractions\Julia Fordham - Concrete Love (2002) [FLAC]\09 - Something Right.wav
Peak level 100.0 %
Track quality 100.0 %
Test CRC 2A854A75
Copy CRC 2A854A75
Accurately ripped (confidence 11) [E9AC74B3]
Copy OK
Track 10
Filename J:\EAC Extractions\Julia Fordham - Concrete Love (2002) [FLAC]\10 - Roadside Angel.wav
Peak level 100.0 %
Track quality 99.9 %
Test CRC 4F9D5600
Copy CRC 4F9D5600
Accurately ripped (confidence 11) [9C50C83B]
Copy OK
Track 11
Filename J:\EAC Extractions\Julia Fordham - Concrete Love (2002) [FLAC]\11 - Alleluia (Featuring Joe Henry).wav
Peak level 100.0 %
Track quality 99.9 %
Test CRC 3FA796C3
Copy CRC 3FA796C3
Accurately ripped (confidence 11) [07A07120]
Copy OK
All tracks accurately ripped
No errors occurred
End of status report

Содержание индексной карты (.CUE)

REM GENRE Pop
REM DATE 2002
REM DISCID 8A0B7E0B
REM COMMENT "ExactAudioCopy v0.99pb5"
PERFORMER "Julia Fordham"
TITLE "Concrete Love"
FILE "01 - Love.wav" WAVE
TRACK 01 AUDIO
TITLE "Love"
PERFORMER "Julia Fordham"
INDEX 01 00:00:00
FILE "02 - Italy.wav" WAVE
TRACK 02 AUDIO
TITLE "Italy"
PERFORMER "Julia Fordham"
INDEX 01 00:00:00
FILE "03 - Wake Up with You (The I Wanna Song).wav" WAVE
TRACK 03 AUDIO
TITLE "Wake Up with You (The I Wanna Song)"
PERFORMER "Julia Fordham"
INDEX 01 00:00:00
FILE "04 - Concrete Love (feat. India.Arie).wav" WAVE
TRACK 04 AUDIO
TITLE "Concrete Love (feat. India.Arie)"
PERFORMER "Julia Fordham"
INDEX 01 00:00:00
FILE "05 - Missing Man.wav" WAVE
TRACK 05 AUDIO
TITLE "Missing Man"
PERFORMER "Julia Fordham"
INDEX 01 00:00:00
FILE "06 - Foolish Thing.wav" WAVE
TRACK 06 AUDIO
TITLE "Foolish Thing"
PERFORMER "Julia Fordham"
INDEX 01 00:00:00
FILE "07 - Butterfly.wav" WAVE
TRACK 07 AUDIO
TITLE "Butterfly"
PERFORMER "Julia Fordham"
INDEX 01 00:00:00
FILE "08 - It's Another You Day.wav" WAVE
TRACK 08 AUDIO
TITLE "It's Another You Day"
PERFORMER "Julia Fordham"
INDEX 01 00:00:00
FILE "09 - Something Right.wav" WAVE
TRACK 09 AUDIO
TITLE "Something Right"
PERFORMER "Julia Fordham"
INDEX 01 00:00:00
FILE "10 - Roadside Angel.wav" WAVE
TRACK 10 AUDIO
TITLE "Roadside Angel"
PERFORMER "Julia Fordham"
INDEX 01 00:00:00
FILE "11 - Alleluia (feat. Joe Henry).wav" WAVE
TRACK 11 AUDIO
TITLE "Alleluia (feat. Joe Henry)"
PERFORMER "Julia Fordham"
INDEX 01 00:00:00

Отчет CUETools

[CUETools log; Date: 06.06.2017 20:55:27; Version: 2.1.5]
[CTDB TOCID: YI2eFo3y.ZgWgsJefx.Jf7qeUgw-] found.
Track | CTDB Status
1 | (21/22) Accurately ripped
2 | (21/22) Accurately ripped
3 | (22/22) Accurately ripped
4 | (22/22) Accurately ripped
5 | (21/22) Accurately ripped
6 | (21/22) Accurately ripped
7 | (21/22) Accurately ripped
8 | (21/22) Accurately ripped
9 | (21/22) Accurately ripped
10 | (21/22) Accurately ripped
11 | (22/22) Accurately ripped
[AccurateRip ID: 00136375-00a832a7-8a0b7e0b] found.
Track [ CRC | V2 ] Status
01 [016fb88a|5086e1c8] (15+19/43) Accurately ripped
02 [7635d9e0|b5aa31a9] (15+19/43) Accurately ripped
03 [2bbe1ceb|b3fb94a2] (15+19/43) Accurately ripped
04 [8aa18ad1|62c140f2] (15+20/44) Accurately ripped
05 [ddd668ed|8be18459] (15+19/43) Accurately ripped
06 [0bdf920d|2c444ca4] (15+19/43) Accurately ripped
07 [34109343|c5f51de6] (15+19/43) Accurately ripped
08 [83f3b1c3|77a9fd17] (15+19/43) Accurately ripped
09 [e9ac74b3|0de479d9] (15+19/43) Accurately ripped
10 [9c50c83b|f0b6cce2] (15+19/43) Accurately ripped
11 [07a07120|76cfb102] (15+18/41) Accurately ripped
Offsetted by -635:
01 [7f72c54e] (05/43) Accurately ripped
02 [35755e59] (05/43) Accurately ripped
03 [af86cc5c] (05/43) Accurately ripped
04 [0c89f92c] (05/44) Accurately ripped
05 [069dfa6e] (05/43) Accurately ripped
06 [f7116ada] (05/43) Accurately ripped
07 [1d7705e3] (05/43) Accurately ripped
08 [51ec8421] (05/43) Accurately ripped
09 [19268ac8] (05/43) Accurately ripped
10 [1cbbca1a] (05/43) Accurately ripped
11 [78990b77] (04/41) Accurately ripped
Track Peak [ CRC32 ] [W/O NULL] [ LOG ]
-- 100,0 [8FA94BF9] [5A4E7E04]
01 100,0 [6CBB7B25] [C082B424] CRC32
02 100,0 [7E05EC1B] [7358C724] CRC32
03 100,0 [45AF86D9] [36495AE9] CRC32
04 98,8 [33429037] [DC81AE96] CRC32
05 100,0 [6993488F] [C16ED89B] CRC32
06 100,0 [CA2D6460] [030599DB] CRC32
07 100,0 [CCF44C17] [B18D91EE] CRC32
08 100,0 [28F0B91F] [F76AC4B1] CRC32
09 100,0 [2A854A75] [D28316B3] CRC32
10 100,0 [4F9D5600] [8A6D2B29] CRC32
11 100,0 [3FA796C3] [6F20014D] CRC32

AllMusic Review by MacKenzie Wilson

English singer/songwriter Julia Fordham rediscovers pain and passion on her sixth album, Concrete Love. Four years since 1997's East West, Fordham has had plenty of time to experience love's greatest fun and fears, but with time on her hands to perfect something more personal. Concrete Love is probably her most stripped album since 1989's Porcelain, and Fordham's honeyed, dark, four-octave brood is at its best. She and producer Larry Klein (he produced 1994's Falling Forward) collaborate again, crafting her songwriting into something delicate, vast in bold hues of something shimmering and gold. Songs such as "It's Another You Day" and "Butterfly" are carefree with light, springlike jazz tinges. "Foolish Thing" changes tempo; the mood is sultry and Fordham's aching vocals question love's dramatic ways. She sticks with the soulful grooves throughout the entire album -- "It's Another You Day," "Missing Man" -- and breezy acoustics project a seamless composition overall. Concrete Love is an emotional record rich with layered musicianship, a signature of Fordham, but nothing less than what listeners are all feeling. "Alleluia," the breathtaking collaboration with gravelly singer/songwriter Joe Henry, bridges Fordham's most heartwrenching moment. She's confident and Concrete Love is a sure sign of such intrinsic beauty and musical grace.

If you like the topic, please click share to help develop our site.

To download the file disable ad blocking, and reload the page.

disable adblock How to disable ad blocking?

Download by magnet link 312 MB Download Torrent

Login using:

Similar topics



   
Current time is: 21-Jul 16:05 :: All times are UTC + 3