Julia Fordham - Falling Forward
Жанр: Vocal Jazz, Smooth Jazz
Носитель: CD
Год издания: 1994
Издатель (лейбл): Circa
Аудиокодек: FLAC (*.flac)
Тип рипа: tracks+.cue
Битрейт аудио: lossless
Продолжительность: 49:43
Источник (релизер): What.CD
Наличие сканов в содержимом раздачи: нет
Треклист:
01. I Can't Help Myself (4:04)
02. Caged Bird (4:09)
03. Falling Forward (5:20)
04. River (4:31)
05. Blue Sky (6:18)
06. Different Time, Different Place (4:06)
07. Threadbare (5:02)
08. Love & Forgiveness (4:21)
09. Honeymoon (3:34)
10. Hope, Prayer & Time (3:55)
11. Safe (4:23)

Лог создания рипа

Exact Audio Copy V1.0 beta 3 from 29. August 2011
EAC extraction logfile from 4. February 2014, 2:05
Julia Fordham / Falling Forward
Used drive : PLEXTOR DVDR PX-L890SA Adapter: 0 ID: 0
Read mode : Secure
Utilize accurate stream : Yes
Defeat audio cache : Yes
Make use of C2 pointers : No
Read offset correction : 6
Overread into Lead-In and Lead-Out : No
Fill up missing offset samples with silence : Yes
Delete leading and trailing silent blocks : No
Null samples used in CRC calculations : Yes
Used interface : Native Win32 interface for Win NT & 2000
Gap handling : Appended to previous track
Used output format : User Defined Encoder
Selected bitrate : 896 kBit/s
Quality : High
Add ID3 tag : No
Command line compressor : C:\Program Files (x86)\FLAC\flac.exe
Additional command line options : -8 -V -T "ARTIST=%artist%" -T "TITLE=%title%" -T "ALBUM=%albumtitle%" -T "DATE=%year%" -T "TRACKNUMBER=%tracknr%" -T "GENRE=%genre%" -T "PERFORMER=%albuminterpret%" -T "COMPOSER=%composer%" %haslyrics%--tag-from-file=LYRICS="%lyricsfile%"%haslyrics% -T "ALBUMARTIST=%albumartist%" -T "DISCNUMBER=%cdnumber%" -T "TOTALDISCS=%totalcds%" -T "TOTALTRACKS=%numtracks%" -T "COMMENT=%comment%" %source% -o %dest%
TOC of the extracted CD
Track | Start | Length | Start sector | End sector
---------------------------------------------------------
1 | 0:00.00 | 4:03.52 | 0 | 18276
2 | 4:03.52 | 4:08.55 | 18277 | 36931
3 | 8:12.32 | 5:19.55 | 36932 | 60911
4 | 13:32.12 | 4:30.45 | 60912 | 81206
5 | 18:02.57 | 6:17.48 | 81207 | 109529
6 | 24:20.30 | 4:05.45 | 109530 | 127949
7 | 28:26.00 | 5:02.37 | 127950 | 150636
8 | 33:28.37 | 4:21.30 | 150637 | 170241
9 | 37:49.67 | 3:34.33 | 170242 | 186324
10 | 41:24.25 | 3:55.35 | 186325 | 203984
11 | 45:19.60 | 4:22.47 | 203985 | 223681
Track 1
Filename E:\PT\Julia Fordham - Falling Forward(1994)[flac]\01.I Can't Help Myself.wav
Pre-gap length 0:00:02.00
Peak level 98.7 %
Extraction speed 1.3 X
Track quality 99.9 %
Test CRC 4C8E457E
Copy CRC 4C8E457E
Accurately ripped (confidence 3) [3D998821] (AR v2)
Copy OK
Track 2
Filename E:\PT\Julia Fordham - Falling Forward(1994)[flac]\02.Caged Bird.wav
Pre-gap length 0:00:01.70
Peak level 100.0 %
Extraction speed 2.0 X
Track quality 100.0 %
Test CRC 125C65E9
Copy CRC 125C65E9
Accurately ripped (confidence 3) [4D619F53] (AR v2)
Copy OK
Track 3
Filename E:\PT\Julia Fordham - Falling Forward(1994)[flac]\03.Falling Forward.wav
Pre-gap length 0:00:00.50
Peak level 99.2 %
Extraction speed 2.3 X
Track quality 100.0 %
Test CRC 5BA5286F
Copy CRC 5BA5286F
Accurately ripped (confidence 3) [94A6EA48] (AR v2)
Copy OK
Track 4
Filename E:\PT\Julia Fordham - Falling Forward(1994)[flac]\04.River.wav
Pre-gap length 0:00:00.02
Peak level 100.0 %
Extraction speed 1.8 X
Track quality 99.9 %
Test CRC 88339FFE
Copy CRC 88339FFE
Accurately ripped (confidence 3) [20F4E740] (AR v2)
Copy OK
Track 5
Filename E:\PT\Julia Fordham - Falling Forward(1994)[flac]\05.Blue Sky.wav
Pre-gap length 0:00:01.22
Peak level 100.0 %
Extraction speed 2.7 X
Track quality 100.0 %
Test CRC 9633EA38
Copy CRC 9633EA38
Accurately ripped (confidence 3) [40C76048] (AR v2)
Copy OK
Track 6
Filename E:\PT\Julia Fordham - Falling Forward(1994)[flac]\06.Different Time, Different Place.wav
Pre-gap length 0:00:02.48
Peak level 100.0 %
Extraction speed 2.8 X
Track quality 100.0 %
Test CRC F64B4902
Copy CRC F64B4902
Accurately ripped (confidence 3) [F2C33905] (AR v2)
Copy OK
Track 7
Filename E:\PT\Julia Fordham - Falling Forward(1994)[flac]\07.Threadbare.wav
Pre-gap length 0:00:01.33
Peak level 96.2 %
Extraction speed 3.0 X
Track quality 100.0 %
Test CRC 1818585A
Copy CRC 1818585A
Accurately ripped (confidence 3) [5D3A23A1] (AR v2)
Copy OK
Track 8
Filename E:\PT\Julia Fordham - Falling Forward(1994)[flac]\08.Love & Forgiveness.wav
Pre-gap length 0:00:01.02
Peak level 99.0 %
Extraction speed 3.1 X
Track quality 100.0 %
Test CRC 3DB3435D
Copy CRC 3DB3435D
Accurately ripped (confidence 3) [B6C5459B] (AR v2)
Copy OK
Track 9
Filename E:\PT\Julia Fordham - Falling Forward(1994)[flac]\09.Honeymoon.wav
Pre-gap length 0:00:03.00
Peak level 92.5 %
Extraction speed 2.2 X
Track quality 99.9 %
Test CRC 8689F14C
Copy CRC 8689F14C
Accurately ripped (confidence 3) [C0E28D4C] (AR v2)
Copy OK
Track 10
Filename E:\PT\Julia Fordham - Falling Forward(1994)[flac]\10.Hope, Prayer & Time.wav
Pre-gap length 0:00:02.70
Peak level 100.0 %
Extraction speed 3.2 X
Track quality 100.0 %
Test CRC E3175AD8
Copy CRC E3175AD8
Accurately ripped (confidence 3) [6E6E598E] (AR v2)
Copy OK
Track 11
Filename E:\PT\Julia Fordham - Falling Forward(1994)[flac]\11.Safe.wav
Pre-gap length 0:00:01.23
Peak level 93.1 %
Extraction speed 2.5 X
Track quality 99.9 %
Test CRC BCA3AE11
Copy CRC BCA3AE11
Accurately ripped (confidence 3) [6817922A] (AR v2)
Copy OK
All tracks accurately ripped
No errors occurred
End of status report
---- CUETools DB Plugin V2.1.5
[CTDB TOCID: pniZJj_lrl9YyV9ysUT81c.8e70-] found
Submit result:
Track | CTDB Status
1 | (2/2) Accurately ripped
2 | (2/2) Accurately ripped
3 | (2/2) Accurately ripped
4 | (2/2) Accurately ripped
5 | (2/2) Accurately ripped
6 | (2/2) Accurately ripped
7 | (2/2) Accurately ripped
8 | (2/2) Accurately ripped
9 | (2/2) Accurately ripped
10 | (2/2) Accurately ripped
11 | (2/2) Accurately ripped
==== Log checksum 17AE94844AB26217976D9031DEA45C610EC36078CB63C81052977DCB14787044 ====

Содержание индексной карты (.CUE)

REM GENRE Pop
REM DATE 1994
REM DISCID 840BA60B
REM COMMENT "ExactAudioCopy v1.0b3"
PERFORMER "Julia Fordham"
TITLE "Falling Forward"
FILE "01 - I Can't Help Myself.wav" WAVE
TRACK 01 AUDIO
TITLE "I Can't Help Myself"
PERFORMER "Julia Fordham"
INDEX 01 00:00:00
TRACK 02 AUDIO
TITLE "Caged Bird"
PERFORMER "Julia Fordham"
INDEX 00 04:01:57
FILE "02 - Caged Bird.wav" WAVE
INDEX 01 00:00:00
TRACK 03 AUDIO
TITLE "Falling Forward"
PERFORMER "Julia Fordham"
INDEX 00 04:08:05
FILE "03 - Falling Forward.wav" WAVE
INDEX 01 00:00:00
TRACK 04 AUDIO
TITLE "River"
PERFORMER "Julia Fordham"
INDEX 00 05:19:53
FILE "04 - River.wav" WAVE
INDEX 01 00:00:00
TRACK 05 AUDIO
TITLE "Blue Sky"
PERFORMER "Julia Fordham"
INDEX 00 04:29:23
FILE "05 - Blue Sky.wav" WAVE
INDEX 01 00:00:00
TRACK 06 AUDIO
TITLE "Different Time, Different Place"
PERFORMER "Julia Fordham"
INDEX 00 06:15:00
FILE "06 - Different Time, Different Place.wav" WAVE
INDEX 01 00:00:00
TRACK 07 AUDIO
TITLE "Threadbare"
PERFORMER "Julia Fordham"
INDEX 00 04:04:12
FILE "07 - Threadbare.wav" WAVE
INDEX 01 00:00:00
TRACK 08 AUDIO
TITLE "Love & Forgiveness"
PERFORMER "Julia Fordham"
INDEX 00 05:01:35
FILE "08 - Love & Forgiveness.wav" WAVE
INDEX 01 00:00:00
TRACK 09 AUDIO
TITLE "Honeymoon"
PERFORMER "Julia Fordham"
INDEX 00 04:18:30
FILE "09 - Honeymoon.wav" WAVE
INDEX 01 00:00:00
TRACK 10 AUDIO
TITLE "Hope, Prayer & Time"
PERFORMER "Julia Fordham"
INDEX 00 03:31:38
FILE "10 - Hope, Prayer & Time.wav" WAVE
INDEX 01 00:00:00
TRACK 11 AUDIO
TITLE "Safe"
PERFORMER "Julia Fordham"
INDEX 00 03:54:12
FILE "11 - Safe.wav" WAVE
INDEX 01 00:00:00

Отчет CUETools

[CUETools log; Date: 06.06.2017 20:41:22; Version: 2.1.5]
[CTDB TOCID: pniZJj_lrl9YyV9ysUT81c.8e70-] found.
Track | CTDB Status
1 | (20/20) Accurately ripped
2 | (20/20) Accurately ripped
3 | (20/20) Accurately ripped
4 | (20/20) Accurately ripped
5 | (20/20) Accurately ripped
6 | (20/20) Accurately ripped
7 | (20/20) Accurately ripped
8 | (20/20) Accurately ripped
9 | (20/20) Accurately ripped
10 | (20/20) Accurately ripped
11 | (20/20) Accurately ripped
[AccurateRip ID: 0014e64f-00b54007-840ba60b] found.
Track [ CRC | V2 ] Status
01 [8e01e182|3d998821] (04+11/15) Accurately ripped
02 [c4d3f40c|4d619f53] (04+11/15) Accurately ripped
03 [df781eff|94a6ea48] (04+11/15) Accurately ripped
04 [e5700483|20f4e740] (04+11/15) Accurately ripped
05 [99ccc97e|40c76048] (04+11/15) Accurately ripped
06 [7369d2df|f2c33905] (04+11/15) Accurately ripped
07 [98bd7866|5d3a23a1] (04+11/15) Accurately ripped
08 [9d5737b7|b6c5459b] (04+11/15) Accurately ripped
09 [97918a49|c0e28d4c] (04+10/14) Accurately ripped
10 [c8111c37|6e6e598e] (04+11/15) Accurately ripped
11 [341279e0|6817922a] (04+11/15) Accurately ripped
Track Peak [ CRC32 ] [W/O NULL] [ LOG ]
-- 100,0 [EF78B88A] [73DD974D]
01 98,7 [4C8E457E] [96E4415B] CRC32
02 100,0 [125C65E9] [502D2871] CRC32
03 99,2 [5BA5286F] [34B18AE7] CRC32
04 100,0 [88339FFE] [8086A808] CRC32
05 100,0 [9633EA38] [4AF8A683] CRC32
06 100,0 [F64B4902] [370EBDA3] CRC32
07 96,2 [1818585A] [B2818EB4] CRC32
08 99,0 [3DB3435D] [79A8DDE6] CRC32
09 92,5 [8689F14C] [CBF0F739] CRC32
10 100,0 [E3175AD8] [211B1EAC] CRC32
11 93,1 [BCA3AE11] [F61CB342] CRC32

AllMusic Review by Erik Crawford

On Falling Forward, Julia Fordham proves once again that her vocal deftness and range are truly formidable forces. Fordham even supplies the background vocals on all of the songs except "River," creating a polished sound with the help of co-producer Larry Klein. The album has an even-tempered ambience to it, rarely rising above or falling below the fault line which formulates a graceful fluidity throughout the 11 tracks. While the jazzy adult contemporary-type arrangements may lack ingenuity, the versatility and layers of Fordham's angelic voice are more than enough to carry the album.

If you like the topic, please click share to help develop our site.

To download the file disable ad blocking, and reload the page.

disable adblock How to disable ad blocking?

Download by magnet link 330 MB Download Torrent

Login using:

Similar topics



   
Current time is: 21-Jul 15:41 :: All times are UTC + 3