Julia Fordham - Swept
Жанр: Vocal Jazz, Smooth Jazz
Носитель: CD
Страна-производитель диска (релиза): Япония
Год издания: 1991
Издатель (лейбл): Circa/Virgin
Номер по каталогу: VJCP-28064
Аудиокодек: FLAC (*.flac)
Тип рипа: tracks+.cue
Битрейт аудио: lossless
Продолжительность: 45:01
Источник (релизер): What.CD
Наличие сканов в содержимом раздачи: нет
Треклист:
01. I Thought It Was You (5:10)
02. Patches of Happiness (3:49)
03. Swept (4:56)
04. Rainbow Heart (4:54)
05. Betrayed (4:13)
06. Talk Walk Drive (4:12)
07. Shame (3:56)
08. As She Whispers (4:49)
09. Scare Me (5:58)
10. Tied (3:04)

Лог создания рипа

Exact Audio Copy V1.0 beta 3 from 29. August 2011
EAC extraction logfile from 30. March 2014, 20:09
Julia Fordham / Swept
Used drive : PLEXTOR DVDR PX-L890SA Adapter: 0 ID: 0
Read mode : Secure
Utilize accurate stream : Yes
Defeat audio cache : Yes
Make use of C2 pointers : No
Read offset correction : 6
Overread into Lead-In and Lead-Out : No
Fill up missing offset samples with silence : Yes
Delete leading and trailing silent blocks : No
Null samples used in CRC calculations : Yes
Used interface : Native Win32 interface for Win NT & 2000
Gap handling : Appended to previous track
Used output format : User Defined Encoder
Selected bitrate : 896 kBit/s
Quality : High
Add ID3 tag : No
Command line compressor : C:\Program Files (x86)\FLAC\flac.exe
Additional command line options : -8 -V -T "ARTIST=%artist%" -T "TITLE=%title%" -T "ALBUM=%albumtitle%" -T "DATE=%year%" -T "TRACKNUMBER=%tracknr%" -T "TOTALTRACKS=%numtracks%" -T "GENRE=%genre%" -T "ALBUMARTIST=%albumartist%" -T "ALBUM ARTIST=%albumartist%" -T "COMMENT=EAC Secure Mode, Test & Copy, AccurateRip, FLAC -8" %source%
TOC of the extracted CD
Track | Start | Length | Start sector | End sector
---------------------------------------------------------
1 | 0:00.00 | 5:09.55 | 0 | 23229
2 | 5:09.55 | 3:48.55 | 23230 | 40384
3 | 8:58.35 | 4:55.73 | 40385 | 62582
4 | 13:54.33 | 4:54.37 | 62583 | 84669
5 | 18:48.70 | 4:13.10 | 84670 | 103654
6 | 23:02.05 | 4:12.10 | 103655 | 122564
7 | 27:14.15 | 3:55.70 | 122565 | 140259
8 | 31:10.10 | 4:49.15 | 140260 | 161949
9 | 35:59.25 | 5:58.13 | 161950 | 188812
10 | 41:57.38 | 3:04.22 | 188813 | 202634
Track 1
Filename E:\PT\Julia Fordham - Swept(1991)[flac]\01 - I thought it was you.wav
Pre-gap length 0:00:02.00
Peak level 100.0 %
Extraction speed 1.6 X
Track quality 99.9 %
Test CRC EF2A993B
Copy CRC EF2A993B
Accurately ripped (confidence 2) [CD54F2C4] (AR v2)
Copy OK
Track 2
Filename E:\PT\Julia Fordham - Swept(1991)[flac]\02 - Patches of hapiness.wav
Pre-gap length 0:00:01.02
Peak level 100.0 %
Extraction speed 1.6 X
Track quality 99.9 %
Test CRC 04B2E4EF
Copy CRC 04B2E4EF
Accurately ripped (confidence 2) [F4D5E9A9] (AR v2)
Copy OK
Track 3
Filename E:\PT\Julia Fordham - Swept(1991)[flac]\03 - Swept.wav
Pre-gap length 0:00:00.60
Peak level 92.8 %
Extraction speed 2.5 X
Track quality 100.0 %
Test CRC 33D7B3AE
Copy CRC 33D7B3AE
Accurately ripped (confidence 2) [09CC2CFE] (AR v2)
Copy OK
Track 4
Filename E:\PT\Julia Fordham - Swept(1991)[flac]\04 - Rainbow heart.wav
Peak level 100.0 %
Extraction speed 2.0 X
Track quality 99.9 %
Test CRC 4A0295C8
Copy CRC 4A0295C8
Accurately ripped (confidence 2) [C04040D8] (AR v2)
Copy OK
Track 5
Filename E:\PT\Julia Fordham - Swept(1991)[flac]\05 - Betrayed.wav
Peak level 100.0 %
Extraction speed 2.8 X
Track quality 100.0 %
Test CRC A9254440
Copy CRC A9254440
Accurately ripped (confidence 2) [735D93ED] (AR v2)
Copy OK
Track 6
Filename E:\PT\Julia Fordham - Swept(1991)[flac]\06 - Talk walk drive.wav
Pre-gap length 0:00:00.25
Peak level 97.4 %
Extraction speed 3.0 X
Track quality 100.0 %
Test CRC F3B894D2
Copy CRC F3B894D2
Accurately ripped (confidence 2) [D42D0D0A] (AR v2)
Copy OK
Track 7
Filename E:\PT\Julia Fordham - Swept(1991)[flac]\07 - Shame.wav
Peak level 71.3 %
Extraction speed 3.1 X
Track quality 100.0 %
Test CRC 2034FA58
Copy CRC 2034FA58
Accurately ripped (confidence 2) [D5137066] (AR v2)
Copy OK
Track 8
Filename E:\PT\Julia Fordham - Swept(1991)[flac]\08 - As she whispers.wav
Peak level 100.0 %
Extraction speed 3.3 X
Track quality 100.0 %
Test CRC D6855E24
Copy CRC D6855E24
Accurately ripped (confidence 2) [711AFBE4] (AR v2)
Copy OK
Track 9
Filename E:\PT\Julia Fordham - Swept(1991)[flac]\09 - Scare me.wav
Peak level 100.0 %
Extraction speed 3.5 X
Track quality 100.0 %
Test CRC 8E09A7CA
Copy CRC 8E09A7CA
Accurately ripped (confidence 2) [84E3364B] (AR v2)
Copy OK
Track 10
Filename E:\PT\Julia Fordham - Swept(1991)[flac]\10 - Tied.wav
Peak level 70.7 %
Extraction speed 2.3 X
Track quality 99.9 %
Test CRC E1F6BAE3
Copy CRC E1F6BAE3
Accurately ripped (confidence 2) [BC1F37F8] (AR v2)
Copy OK
All tracks accurately ripped
No errors occurred
End of status report
---- CUETools DB Plugin V2.1.5
[CTDB TOCID: fgI3YbchwIG3Sm3MROq5k4RQBmM-] found
Submit result:
Track | CTDB Status
1 | (5/5) Accurately ripped
2 | (5/5) Accurately ripped
3 | (5/5) Accurately ripped
4 | (5/5) Accurately ripped
5 | (5/5) Accurately ripped
6 | (5/5) Accurately ripped
7 | (5/5) Accurately ripped
8 | (5/5) Accurately ripped
9 | (5/5) Accurately ripped
10 | (5/5) Accurately ripped
==== Log checksum 9CD3E8E3AD006C55DD2EF45CC4E4C744551CEE25E0561493137A09540536B10B ====

Содержание индексной карты (.CUE)

REM GENRE Pop
REM DATE 1991
REM DISCID 730A8D0A
REM COMMENT "ExactAudioCopy v1.0b3"
PERFORMER "Julia Fordham"
TITLE "Swept"
FILE "01 - I Thought It Was You.wav" WAVE
TRACK 01 AUDIO
TITLE "I Thought It Was You"
PERFORMER "Julia Fordham"
INDEX 01 00:00:00
TRACK 02 AUDIO
TITLE "Patches of Happiness"
PERFORMER "Julia Fordham"
INDEX 00 05:08:53
FILE "02 - Patches of Happiness.wav" WAVE
INDEX 01 00:00:00
TRACK 03 AUDIO
TITLE "Swept"
PERFORMER "Julia Fordham"
INDEX 00 03:47:70
FILE "03 - Swept.wav" WAVE
INDEX 01 00:00:00
FILE "04 - Rainbow Heart.wav" WAVE
TRACK 04 AUDIO
TITLE "Rainbow Heart"
PERFORMER "Julia Fordham"
INDEX 01 00:00:00
FILE "05 - Betrayed.wav" WAVE
TRACK 05 AUDIO
TITLE "Betrayed"
PERFORMER "Julia Fordham"
INDEX 01 00:00:00
TRACK 06 AUDIO
TITLE "Talk Walk Drive"
PERFORMER "Julia Fordham"
INDEX 00 04:12:60
FILE "06 - Talk Walk Drive.wav" WAVE
INDEX 01 00:00:00
FILE "07 - Shame.wav" WAVE
TRACK 07 AUDIO
TITLE "Shame"
PERFORMER "Julia Fordham"
INDEX 01 00:00:00
FILE "08 - As She Whispers.wav" WAVE
TRACK 08 AUDIO
TITLE "As She Whispers"
PERFORMER "Julia Fordham"
INDEX 01 00:00:00
FILE "09 - Scare Me.wav" WAVE
TRACK 09 AUDIO
TITLE "Scare Me"
PERFORMER "Julia Fordham"
INDEX 01 00:00:00
FILE "10 - Tied.wav" WAVE
TRACK 10 AUDIO
TITLE "Tied"
PERFORMER "Julia Fordham"
INDEX 01 00:00:00

Отчет CUETools

[CUETools log; Date: 06.06.2017 20:27:48; Version: 2.1.5]
[CTDB TOCID: fgI3YbchwIG3Sm3MROq5k4RQBmM-] found.
Track | CTDB Status
1 | (19/19) Accurately ripped
2 | (19/19) Accurately ripped
3 | (19/19) Accurately ripped
4 | (19/19) Accurately ripped
5 | (19/19) Accurately ripped
6 | (19/19) Accurately ripped
7 | (19/19) Accurately ripped
8 | (19/19) Accurately ripped
9 | (19/19) Accurately ripped
10 | (19/19) Accurately ripped
[AccurateRip ID: 001140fa-00899a48-730a8d0a] found.
Track [ CRC | V2 ] Status
01 [22235e3f|cd54f2c4] (0+5/5) Accurately ripped
02 [e548ffc8|f4d5e9a9] (0+5/5) Accurately ripped
03 [d77cca5b|09cc2cfe] (0+5/5) Accurately ripped
04 [5b8e726d|c04040d8] (0+5/5) Accurately ripped
05 [dcf23d3a|735d93ed] (0+5/5) Accurately ripped
06 [bfb3a13f|d42d0d0a] (0+5/5) Accurately ripped
07 [0b4867b4|d5137066] (0+5/5) Accurately ripped
08 [1080afd8|711afbe4] (0+5/5) Accurately ripped
09 [05b1a7da|84e3364b] (0+5/5) Accurately ripped
10 [e700c6f6|bc1f37f8] (0+4/4) Accurately ripped
Track Peak [ CRC32 ] [W/O NULL] [ LOG ]
-- 100,0 [EB3C35A2] [F70599A1]
01 100,0 [EF2A993B] [CEA2AFAB] CRC32
02 100,0 [04B2E4EF] [F5EDA99E] CRC32
03 92,8 [33D7B3AE] [476CCCB3] CRC32
04 100,0 [4A0295C8] [82F6B282] CRC32
05 100,0 [A9254440] [D881A0D8] CRC32
06 97,4 [F3B894D2] [95FE434B] CRC32
07 71,3 [2034FA58] [3D20FB1C] CRC32
08 100,0 [D6855E24] [46A9EC99] CRC32
09 100,0 [8E09A7CA] [B14AFC21] CRC32
10 70,7 [E1F6BAE3] [E85E2EA2] CRC32

If you like the topic, please click share to help develop our site.

To download the file disable ad blocking, and reload the page.

disable adblock How to disable ad blocking?

Download by magnet link 257 MB Download Torrent

Login using:

Similar topics



   
Current time is: 21-Jul 16:11 :: All times are UTC + 3