Julia Fordham - Porcelain
Жанр: Vocal Jazz, Smooth Jazz
Носитель: CD
Страна-производитель диска (релиза): EU
Год издания: 1989
Издатель (лейбл): Circa
Номер по каталогу: CIRCD 10
Аудиокодек: FLAC (*.flac)
Тип рипа: tracks+.cue
Битрейт аудио: lossless
Продолжительность: 49:39
Источник (релизер): What.CD
Наличие сканов в содержимом раздачи: сетевые
Треклист:
01. Lock and Key (4:37)
02. Porcelain (5:38)
03. Girlfriend (4:39)
04. For You Only for You (3:54)
05. Genius (6:20)
06. Did I Happen to Mention? (4:18)
07. Towerblock (3:51)
08. Island (4:42)
09. Your Lovely Face (4:30)
10. China Blue (3:17)
11. Prince of Peace (3:53)

Лог создания рипа

Exact Audio Copy V1.0 beta 3 from 29. August 2011
EAC extraction logfile from 29. January 2014, 3:29
Julia Fordham / Porcelain
Used drive : PLEXTOR DVDR PX-L890SA Adapter: 0 ID: 0
Read mode : Secure
Utilize accurate stream : Yes
Defeat audio cache : Yes
Make use of C2 pointers : No
Read offset correction : 6
Overread into Lead-In and Lead-Out : No
Fill up missing offset samples with silence : Yes
Delete leading and trailing silent blocks : No
Null samples used in CRC calculations : Yes
Used interface : Native Win32 interface for Win NT & 2000
Gap handling : Appended to previous track
Used output format : User Defined Encoder
Selected bitrate : 896 kBit/s
Quality : High
Add ID3 tag : No
Command line compressor : C:\Program Files (x86)\FLAC\flac.exe
Additional command line options : -8 -V -T "ARTIST=%artist%" -T "TITLE=%title%" -T "ALBUM=%albumtitle%" -T "DATE=%year%" -T "TRACKNUMBER=%tracknr%" -T "GENRE=%genre%" -T "PERFORMER=%albuminterpret%" -T "COMPOSER=%composer%" %haslyrics%--tag-from-file=LYRICS="%lyricsfile%"%haslyrics% -T "ALBUMARTIST=%albumartist%" -T "DISCNUMBER=%cdnumber%" -T "TOTALDISCS=%totalcds%" -T "TOTALTRACKS=%numtracks%" -T "COMMENT=%comment%" %source% -o %dest%
TOC of the extracted CD
Track | Start | Length | Start sector | End sector
---------------------------------------------------------
1 | 0:00.37 | 4:37.13 | 37 | 20824
2 | 4:37.50 | 5:37.70 | 20825 | 46169
3 | 10:15.45 | 4:39.37 | 46170 | 67131
4 | 14:55.07 | 3:54.10 | 67132 | 84691
5 | 18:49.17 | 6:20.33 | 84692 | 113224
6 | 25:09.50 | 4:18.20 | 113225 | 132594
7 | 29:27.70 | 3:51.35 | 132595 | 149954
8 | 33:19.30 | 4:42.07 | 149955 | 171111
9 | 38:01.37 | 4:29.73 | 171112 | 191359
10 | 42:31.35 | 3:16.47 | 191360 | 206106
11 | 45:48.07 | 3:53.30 | 206107 | 223611
Track 1
Filename E:\PT\Julia Fordham - Porcelain(1989)[flac]\01.Lock & Key.wav
Pre-gap length 0:00:02.37
Peak level 97.7 %
Extraction speed 3.8 X
Track quality 100.0 %
Test CRC 5A426570
Copy CRC 5A426570
Accurately ripped (confidence 4) [470C4280] (AR v2)
Copy OK
Track 2
Filename E:\PT\Julia Fordham - Porcelain(1989)[flac]\02.Porcelain.wav
Peak level 97.7 %
Extraction speed 4.4 X
Track quality 100.0 %
Test CRC 1102EF08
Copy CRC 1102EF08
Accurately ripped (confidence 4) [DFA6C4FA] (AR v2)
Copy OK
Track 3
Filename E:\PT\Julia Fordham - Porcelain(1989)[flac]\03.Girlfriend.wav
Pre-gap length 0:00:00.36
Peak level 97.7 %
Extraction speed 3.9 X
Track quality 99.9 %
Test CRC ED0327C8
Copy CRC ED0327C8
Accurately ripped (confidence 4) [BA782576] (AR v2)
Copy OK
Track 4
Filename E:\PT\Julia Fordham - Porcelain(1989)[flac]\04.For You Only For You.wav
Peak level 96.0 %
Extraction speed 4.9 X
Track quality 100.0 %
Test CRC 47BC87C2
Copy CRC 47BC87C2
Accurately ripped (confidence 4) [AC4E4FAB] (AR v2)
Copy OK
Track 5
Filename E:\PT\Julia Fordham - Porcelain(1989)[flac]\05.Genius.wav
Peak level 97.7 %
Extraction speed 4.7 X
Track quality 99.9 %
Test CRC 6DCB94A8
Copy CRC 6DCB94A8
Accurately ripped (confidence 4) [04E1D322] (AR v2)
Copy OK
Track 6
Filename E:\PT\Julia Fordham - Porcelain(1989)[flac]\06.Did I Happen To Mention.wav
Pre-gap length 0:00:01.38
Peak level 97.7 %
Extraction speed 4.6 X
Track quality 99.9 %
Test CRC 5C1457D0
Copy CRC 5C1457D0
Accurately ripped (confidence 4) [C5030975] (AR v2)
Copy OK
Track 7
Filename E:\PT\Julia Fordham - Porcelain(1989)[flac]\07.Towerblock.wav
Pre-gap length 0:00:00.74
Peak level 97.7 %
Extraction speed 5.8 X
Track quality 100.0 %
Test CRC 60C14967
Copy CRC 60C14967
Accurately ripped (confidence 4) [E72E95F9] (AR v2)
Copy OK
Track 8
Filename E:\PT\Julia Fordham - Porcelain(1989)[flac]\08.Island.wav
Pre-gap length 0:00:00.37
Peak level 97.7 %
Extraction speed 6.2 X
Track quality 100.0 %
Test CRC 9A9D2E2C
Copy CRC 9A9D2E2C
Accurately ripped (confidence 4) [B240F0B3] (AR v2)
Copy OK
Track 9
Filename E:\PT\Julia Fordham - Porcelain(1989)[flac]\09.Your Lovely Face.wav
Peak level 97.7 %
Extraction speed 6.4 X
Track quality 100.0 %
Test CRC 2380F1C2
Copy CRC 2380F1C2
Accurately ripped (confidence 4) [BBB396FC] (AR v2)
Copy OK
Track 10
Filename E:\PT\Julia Fordham - Porcelain(1989)[flac]\10.China Blue.wav
Pre-gap length 0:00:00.73
Peak level 70.4 %
Extraction speed 6.3 X
Track quality 100.0 %
Test CRC 730418E6
Copy CRC 730418E6
Accurately ripped (confidence 4) [97D2C3A8] (AR v2)
Copy OK
Track 11
Filename E:\PT\Julia Fordham - Porcelain(1989)[flac]\11.Prince Of Peace.wav
Peak level 91.2 %
Extraction speed 5.2 X
Track quality 99.9 %
Test CRC 4003087D
Copy CRC 4003087D
Accurately ripped (confidence 4) [BED360BD] (AR v2)
Copy OK
All tracks accurately ripped
No errors occurred
End of status report
---- CUETools DB Plugin V2.1.5
[CTDB TOCID: Vnl6_H4Nj_jIIqIuWpTvdyEn.Tc-] disk not present in database
Submit result:
==== Log checksum 2813F720ECDDDA83EFADDAB7C2D0FD923B639EFCA7D37AF62C8B8D52C3EA0180 ====

Содержание индексной карты (.CUE)

REM GENRE Pop
REM DATE 1989
REM DISCID 8E0BA50B
REM COMMENT "ExactAudioCopy v1.0b3"
PERFORMER "Julia Fordham"
TITLE "Porcelain"
FILE "01 - Lock and Key.wav" WAVE
TRACK 01 AUDIO
TITLE "Lock and Key"
PERFORMER "Julia Fordham"
PREGAP 00:00:37
INDEX 01 00:00:00
FILE "02 - Porcelain.wav" WAVE
TRACK 02 AUDIO
TITLE "Porcelain"
PERFORMER "Julia Fordham"
INDEX 01 00:00:00
TRACK 03 AUDIO
TITLE "Girlfriend"
PERFORMER "Julia Fordham"
INDEX 00 05:37:34
FILE "03 - Girlfriend.wav" WAVE
INDEX 01 00:00:00
FILE "04 - For You Only for You.wav" WAVE
TRACK 04 AUDIO
TITLE "For You Only for You"
PERFORMER "Julia Fordham"
INDEX 01 00:00:00
FILE "05 - Genius.wav" WAVE
TRACK 05 AUDIO
TITLE "Genius"
PERFORMER "Julia Fordham"
INDEX 01 00:00:00
TRACK 06 AUDIO
TITLE "Did I Happen to Mention?"
PERFORMER "Julia Fordham"
INDEX 00 06:18:70
FILE "06 - Did I Happen to Mention.wav" WAVE
INDEX 01 00:00:00
TRACK 07 AUDIO
TITLE "Towerblock"
PERFORMER "Julia Fordham"
INDEX 00 04:17:21
FILE "07 - Towerblock.wav" WAVE
INDEX 01 00:00:00
TRACK 08 AUDIO
TITLE "Island"
PERFORMER "Julia Fordham"
INDEX 00 03:50:73
FILE "08 - Island.wav" WAVE
INDEX 01 00:00:00
FILE "09 - Your Lovely Face.wav" WAVE
TRACK 09 AUDIO
TITLE "Your Lovely Face"
PERFORMER "Julia Fordham"
INDEX 01 00:00:00
TRACK 10 AUDIO
TITLE "China Blue"
PERFORMER "Julia Fordham"
INDEX 00 04:29:00
FILE "10 - China Blue.wav" WAVE
INDEX 01 00:00:00
FILE "11 - Prince of Peace.wav" WAVE
TRACK 11 AUDIO
TITLE "Prince of Peace"
PERFORMER "Julia Fordham"
INDEX 01 00:00:00

Отчет CUETools

[CUETools log; Date: 06.06.2017 18:46:21; Version: 2.1.5]
Pregap length 00:00:37.
[CTDB TOCID: Vnl6_H4Nj_jIIqIuWpTvdyEn.Tc-] found.
Track | CTDB Status
1 | (14/15) Accurately ripped
2 | (14/15) Accurately ripped
3 | (15/15) Accurately ripped
4 | (15/15) Accurately ripped
5 | (15/15) Accurately ripped
6 | (14/15) Accurately ripped
7 | (15/15) Accurately ripped
8 | (15/15) Accurately ripped
9 | (14/15) Accurately ripped
10 | (14/15) Accurately ripped
11 | (14/15) Accurately ripped
[AccurateRip ID: 00157766-00b8610d-8e0ba50b] found.
Track [ CRC | V2 ] Status
01 [4f11406d|470c4280] (10+11/26) Accurately ripped
02 [c4021f00|dfa6c4fa] (10+11/26) Accurately ripped
03 [ba6c20ca|ba782576] (10+11/26) Accurately ripped
04 [65495f31|ac4e4fab] (10+11/26) Accurately ripped
05 [30020080|04e1d322] (10+11/26) Accurately ripped
06 [e33ab12b|c5030975] (10+11/26) Accurately ripped
07 [a499602a|e72e95f9] (10+11/26) Accurately ripped
08 [51afe62d|b240f0b3] (10+11/26) Accurately ripped
09 [7c5efcf9|bbb396fc] (10+10/25) Accurately ripped
10 [1c45924c|97d2c3a8] (10+11/26) Accurately ripped
11 [17ccbfb7|bed360bd] (10+11/26) Accurately ripped
Offsetted by -892:
01 [c9a76cc0] (02/26) Accurately ripped
02 [2dcdfdf9] (02/26) Accurately ripped
03 [7730135e] (02/26) Accurately ripped
04 [618dd7ee] (02/26) Accurately ripped
05 [e14227af] (02/26) Accurately ripped
06 [a4a39a73] (02/26) Accurately ripped
07 [d105b4ba] (02/26) Accurately ripped
08 [111de9bc] (02/26) Accurately ripped
09 [4bf25b96] (02/25) Accurately ripped
10 [6ae47d1e] (02/26) Accurately ripped
11 [66fcdcfd] (02/26) Accurately ripped
Track Peak [ CRC32 ] [W/O NULL] [ LOG ]
-- 97,7 [C0E2C195] [DA73BDB9]
01 97,7 [5A426570] [CD1B7D08] CRC32
02 97,7 [1102EF08] [A4B63362] CRC32
03 97,7 [ED0327C8] [0EA59884] CRC32
04 96,0 [47BC87C2] [3B9CCB36] CRC32
05 97,7 [6DCB94A8] [05F15CA6] CRC32
06 97,7 [5C1457D0] [4F0B15D4] CRC32
07 97,7 [60C14967] [A6DEB2CC] CRC32
08 97,7 [9A9D2E2C] [318E6127] CRC32
09 97,7 [2380F1C2] [C25F5AD0] CRC32
10 70,4 [730418E6] [788F1AA2] CRC32
11 91,2 [4003087D] [B625CBAF] CRC32

Об альбоме (сборнике)

Porcelain has to be her best album ever. I've owned it since it's release and have never grown tired of it. The layering of instruments with her voice is so very dimensional it has kept my interest and commanded my respect the more I listen. The lyrics are personal, and they delve into the more mature, somwhat jaded aspects of love and life that are not often explored in pop lyrics. The phrasing is poetic and set to the music in ways that truly get to the heart of the lyric. Genius is a full-out Brazilian Samba with a playful, easy, tropical feel and a second verse delivered in impeccable Portuguese. I think the authenticity of it's Brazilian flavor keep it from ever getting campy or cartoonish. Lock and Key is a rumba with an outstanding percussion and flamenco guitar accompaniment. Your Lovely Face becomes a complex interweaving of haunting phrases that reach a crescendo and leave you breathless. For You Only For You is just Julia and a piano with an intimate feel as she confesses to having cried every river of the world by name. Each selection on this album is distinctive, fully developed, and strong. This is an album to fall in love with. To take on road trips and disappear into. It is pure elegance and sophistication with an edge of fun. Owning this album has enriched my life. Oh, and did I happen to mention Julia's beautiful voice is so flexible, so expressive, with its awesome range and subtle power that it can become an addiction. Buy this.
-- Gregory Walker

If you like the topic, please click share to help develop our site.

To download the file disable ad blocking, and reload the page.

disable adblock How to disable ad blocking?

Download by magnet link 268 MB Download Torrent

Login using:

Similar topics



   
Current time is: 21-Jul 16:50 :: All times are UTC + 3